Бруклин / Brooklyn (2015) DVDScr скачать торрент

Киноновинки, новинки кинопроката, горячие новинки, Экранки, Camrip, TS

Модератор: Модераторы видео

  • Статистика раздачи
Размер: 1.46 ГБ   |  Зарегистрирован: 26 янв 2016, 16:44   |   .torrent скачан: 12 раз
Сидеров: 219  [ 0 байт/сек ]     Личеров: 0  [ 0 байт/сек ]  
Список файлов : Кто скачал : Раздают : Скачивают : Кто благодарил : История : Не раздающие : Запрашивали сидеров : Внешние трекеры 
  

Бруклин / Brooklyn (2015) DVDScr

Сообщение Админ » 26 янв 2016, 16:44

Бруклин / Brooklyn (2015) Screener

Производство: Ирландия, Великобритания, Канада
Жанр: Мелодрама

Режиссер: Джон Краули
Продюсер: Финола Двайер, Аманда Пози, Пьер Ивен
Актеры: Сирша Ронан, Эмори Коэн, Донал Глисон, Джим Бродбент, Джули Уолтерс, Брид Бреннан, Джейн Бреннан, Фиона Глэскотт, Джессика Паре, Эйлин О Хиггинс

Описание:
История Эллис Лэйси, которая неохотно покидает свою родную ирландскую деревню и отправляется на поиски работы в Америку. В итоге она поселяется в Бруклине, постепенно излечивается от ностальгии и начинает наслаждаться воздухом свободы. Ко всему прочему Эллис влюбляется, но трагические новости с родины заставляют ее вернуться в Ирландию, где она встречает другого мужчину и в результате вынуждена делать нелегкий выбор.


Дата мировой премьеры: 26 января 2015

Продолжительность: 01:51:45
Качество видео: DVDScr
Перевод: Двуголосый закадровый, любительский (Galina Vasyukova & datynet)
Вид субтитров: Отсутствуют

Видео: Xvid, 720x384, ~1668 Кбит/с
Аудио: AC3, 2 ch, 192 Кбит/с, CBR
Код:
Код: Выделить всё
Общее
Полное имя                               : D:\FILMЬl\2016 MONK\Bruklin.DVDScreener.avi
Формат                                   : AVI
Формат/Информация                        : Audio Video Interleave
Размер файла                             : 1,46 Гбайт
Продолжительность                        : 1 ч. 51 м.
Общий поток                              : 1869 Кбит/сек
Программа кодирования                    : VirtualDubMod 1.5.10.3 | [url=http://www.virtualdub-fr.org]www.virtualdub-fr.org[/url] || (build 2550/release)
Библиотека кодирования                   : VirtualDubMod build 2550/release

Видео
Идентификатор                            : 0
Формат                                   : MPEG-4 Visual
Профиль формата                          : Advanced [email protected]
Параметр BVOP формата                    : 2
Параметр QPel формата                    : Нет
Параметр GMC формата                     : Без точки перехода
Параметр матрицы формата                 : Default (MPEG)
Идентификатор кодека                     : XVID
Идентификатор кодека/Подсказка           : XviD
Продолжительность                        : 1 ч. 51 м.
Битрейт                                  : 1668 Кбит/сек
Ширина                                   : 720 пикселей
Высота                                   : 384 пикселя
Соотношение сторон                       : 1,85:1
Частота кадров                           : 23,976 кадра/сек
Цветовое пространство                    : YUV
Субдискретизация насыщенности            : 4:2:0
Битовая глубина                          : 8 бит
Тип развёртки                            : Прогрессивная
Метод сжатия                             : С потерями
Бит/(Пиксели*Кадры)                      : 0.252
Размер потока                            : 1,30 Гбайт (89%)
Библиотека кодирования                   : XviD 1.2.1 (UTC 2008-12-04)

Аудио
Идентификатор                            : 1
Формат                                   : AC-3
Формат/Информация                        : Audio Coding 3
Расширение режима                        : CM (complete main)
Параметр Endianness формата              : Big
Идентификатор кодека                     : 2000
Продолжительность                        : 1 ч. 51 м.
Вид битрейта                             : Постоянный
Битрейт                                  : 192 Кбит/сек
Каналы                                   : 2 канала
Расположение каналов                     : Front: L R
Частота                                  : 48,0 КГц
Метод сжатия                             : С потерями
Размер потока                            : 153 Мбайт (10%)
Выравнивание                             : Разделение по промежуткам
Продолжительность промежутка             : 42  мс. (1,00 видеокадр)
Время предзагрузки промежутка            : 500  мс.

Скриншоты:



Время раздачи: С 09:00 до 23:30 до 5 скачавших
   
Торрент: Зарегистрирован [26 янв 2016, 16:44] Скачать торрент
Скачать торрент
[ Размер 15.37 КБ / Просмотров 240 ]

Статус:
 
Приватный: Нет (DHT включён)
Размер: 1.46 ГБ (1 566 701 568 байт)
   
Аватара пользователя

Администратор
Администратор
 
Раздал: 2.36 ПБ
Скачал: 1.02 ПБ
Ратио: 2.311
Сообщения: 3722
Зарегистрирован: 07 май 2010, 17:29
Medals: 1
Лучший релиз за месяц (1)
  • Личное сообщение
  • ICQ

  • Похожие торренты
    Ответы
    Просмотры
    Последнее сообщение

Вернуться в Зарубежные фильмы (Экранки: Camrip, TS, Scr)

Кто сейчас на конференции

Зарегистрированные пользователи: нет зарегистрированных пользователей

cron
Ресурс не предоставляет электронные версии произведений, а занимается лишь коллекционированием и каталогизацией ссылок, присылаемых и публикуемых на форуме нашими читателями. Если вы являетесь правообладателем какого-либо представленного материала и не желаете чтобы ссылка на него находилась в нашем каталоге, свяжитесь с нами и мы незамедлительно удалим её. Файлы для обмена на трекере предоставлены пользователями сайта, и администрация не несёт ответственности за их содержание. Просьба не заливать файлы, защищенные авторскими правами, а также файлы нелегального содержания!
cron