Третий лишний 2 / Ted 2 (2015) CAMRip скачать торрент

Киноновинки, новинки кинопроката, горячие новинки, Экранки, Camrip, TS

Модератор: Модераторы видео

  • Статистика раздачи
Размер: 1.55 ГБ   |  Зарегистрирован: 05 июл 2015, 00:54   |   .torrent скачан: 20047 раз
Сидеров: 11210  [ 0 байт/сек ]     Личеров: 1588  [ 0 байт/сек ]  
Список файлов : Кто скачал : Раздают : Скачивают : Кто благодарил : История : Не раздающие : Запрашивали сидеров : Внешние трекеры 
  

Третий лишний 2 / Ted 2 (2015) CAMRip

Сообщение Админ » 05 июл 2015, 00:54

Информация о фильме :
Название: Третий лишний 2
Оригинальное название: Ted 2
Год выхода: 2015
Жанр: Комедия, 18+
Режиссер: Сет МакФарлейн
В ролях: Марк Уолберг, Сет МакФарлейн, Аманда Сайфред, Джованни Рибизи, Джон Слэттери, Морган Фриман, Джессика Барт, Сэм Дж. Джонс, Патрик Варбертон, Майкл Дорн

О фильме: Плюшевый беспредельщик продолжает сводить с ума чопорную интеллигенцию. На этот раз говорящий медвежонок с большим эго и его длинноногая блондинка решили завести ребенка. Там где не постаралась природа, на помощь приходят звездные доноры, городские сумасшедшие и верный друг Джонни. Он только что расстался с Лори и готов к новым авантюрам. Третий здесь совсем не лишний.



Качество: CAMRip
Видео: XviD, 1513 Кбит/с, 720x304
Аудио: Русский, английский (AC3, 2 ch, 256 Кбит/с)
Размер: 1.55 ГБ
Продолжительность: 01:48:43
Перевод: Дублированный

Примечание: Полный фильм! Присутствуют вставками оригинального звука в нескольких местах вырезанных в русской театральной версии цензурой (общей продолжительностью около 2 минут)

General
Complete name : Ted.2.2015.D.CAMRip.avi
Format : AVI
Format/Info : Audio Video Interleave
File size : 1.55 GiB
Duration : 1h 48mn
Overall bit rate : 2 042 Kbps
Writing application : VirtualDubMod 1.5.10.3 (build 2550/release)
Writing library : VirtualDubMod build 2550/release

Video
ID : 0
Format : MPEG-4 Visual
Format profile : Advanced [email protected]
Format settings, BVOP : 2
Format settings, QPel : Yes
Format settings, GMC : No warppoints
Format settings, Matrix : Default (H.263)
Codec ID : XVID
Codec ID/Hint : XviD
Duration : 1h 48mn
Bit rate : 1 513 Kbps
Width : 720 pixels
Height : 304 pixels
Display aspect ratio : 2.35:1
Frame rate : 29.970 fps
Color space : YUV
Chroma subsampling : 4:2:0
Bit depth : 8 bits
Scan type : Progressive
Compression mode : Lossy
Bits/(Pixel*Frame) : 0.231
Stream size : 1.15 GiB (74%)
Writing library : XviD 1.2.1 (UTC 2008-12-04)

Audio #1
ID : 1
Format : AC-3
Format/Info : Audio Coding 3
Mode extension : CM (complete main)
Format settings, Endianness : Big
Codec ID : 2000
Duration : 1h 48mn
Bit rate mode : Constant
Bit rate : 256 Kbps
Channel(s) : 2 channels
Channel positions : Front: L R
Sampling rate : 48.0 KHz
Bit depth : 16 bits
Compression mode : Lossy
Stream size : 199 MiB (13%)
Alignment : Split accross interleaves
Interleave, duration : 33 ms (1.00 video frame)
Interleave, preload duration : 500 ms

Audio #2
ID : 2
Format : AC-3
Format/Info : Audio Coding 3
Mode extension : CM (complete main)
Format settings, Endianness : Big
Codec ID : 2000
Duration : 1h 48mn
Bit rate mode : Constant
Bit rate : 256 Kbps
Channel(s) : 2 channels
Channel positions : Front: L R
Sampling rate : 48.0 KHz
Bit depth : 16 bits
Compression mode : Lossy
Stream size : 199 MiB (13%)
Alignment : Split accross interleaves
Interleave, duration : 33 ms (1.00 video frame)
Interleave, preload duration : 500 ms
Начну с того что вышедший в 2012 году «Третий лишний» мне понравился и я с нетерпением ждала вторую часть о приключениях Теда и Джона, и я могу сказать что получилось вполне неплохое продолжение. Итак, Тед женился, а Джон развелся, Тед и Джон по жизни вместе и помогают друг другу как и прежде. Проблема приходят откуда не ждали, чтобы усыновить ребенка Теду необходимо доказать что он личность, наняв адвоката по имени Саманта, Тед и Джон начинают бороться с бюрократической несправедливостью…

Лично мне фильм понравился, получилось смешно, а местами было уморительно смешно, как и в первом фильме было много прикольных отсылок к разным фильмам, киногероям, а показанный Comic- con — это вообще нечто. Вроде бы это легкомысленная Комедия, но здесь поднимается интересная тема о справедливости, о равенстве, о семейных взаимоотношениях, о взаимопомощи, о том что настоящий друг не оставит в беде и будет за тебя бороться несмотря ни на что.

Об актерах. Марк Уолберг, Джон, его персонаж расставшись с Лори впадает в депрессию, но Тед не дает ему скучать, вообще Джон так и остался раздолбаем и прикольным парнем у которого лучший друг плюшевый медведь, Марк Уолберг, на мой взгляд, отлично передал переживания своего героя. Когда я узнала что Мила Кунис не сможет участвовать в продолжении, то немного расстроилась, но Аманда Сайфред, Саманта, она отлично вписалась в компанию Теда и Джона, веселая, задорная девушка, готовая бороться за справедливость вопреки всему. Тед, Сет МакФарлейн, всё тот же плюшевый беспредельщик, который покажет «где раки зимуют» и кто прав, а кто нет. Что вызвало чувство дежавю, так это персонаж Джованни Рибизи (Донни), который вновь гонялся за Тедом. Порадовало участие в фильме Лиама Нисона и Моргана Фримана.

В общем, «Третий лишний 2» как по мне неплохая Комедия с забавными героями, которые попали в непростую ситуацию и им приходится из неё выпутываться. Тем кому по душе Тед и его выходки, кино понравится, лично я посмеялась от души и вышла из кинотеатра в хорошем настроении.
   
Торрент: Зарегистрирован [05 июл 2015, 00:54] Скачать торрент
Скачать торрент
[ Размер 16.33 КБ / Просмотров 298 ]

Статус:
 
Приватный: Нет (DHT включён)
Размер: 1.55 ГБ (1 665 236 992 байт)
   
Аватара пользователя

Администратор
Администратор
 
Раздал: 2.36 ПБ
Скачал: 1.02 ПБ
Ратио: 2.311
Сообщения: 3722
Зарегистрирован: 07 май 2010, 17:29
Medals: 1
Лучший релиз за месяц (1)
  • Личное сообщение
  • ICQ

  • Похожие торренты
    Ответы
    Просмотры
    Последнее сообщение

Вернуться в Зарубежные фильмы (Экранки: Camrip, TS, Scr)

Кто сейчас на конференции

Зарегистрированные пользователи: нет зарегистрированных пользователей

cron
Ресурс не предоставляет электронные версии произведений, а занимается лишь коллекционированием и каталогизацией ссылок, присылаемых и публикуемых на форуме нашими читателями. Если вы являетесь правообладателем какого-либо представленного материала и не желаете чтобы ссылка на него находилась в нашем каталоге, свяжитесь с нами и мы незамедлительно удалим её. Файлы для обмена на трекере предоставлены пользователями сайта, и администрация не несёт ответственности за их содержание. Просьба не заливать файлы, защищенные авторскими правами, а также файлы нелегального содержания!
cron