Лекарство от здоровья / A Cure for Wellness (2016) HDRip-AVC | L скачать торрент

Киноновинки, новинки кинопроката, горячие новинки

Модератор: Модераторы видео

  • Статистика раздачи
Размер: 1.45 ГБ   |  Зарегистрирован: 03 июн 2017, 11:50   |   .torrent скачан: 5408 раз
Сидеров: 1106  [ 0 байт/сек ]     Личеров: 63  [ 0 байт/сек ]  
Список файлов : Кто скачал : Раздают : Скачивают : Кто благодарил : История : Не раздающие : Запрашивали сидеров : Внешние трекеры 
  

Лекарство от здоровья / A Cure for Wellness (2016) HDRip-AVC | L

Сообщение Админ » 03 июн 2017, 11:50



Информация о фильме
Название: Лекарство от здоровья
Оригинальное название: A Cure for Wellness
Год выхода: 2016
Жанр: Триллер, детектив
Режиссер: Гор Вербински
В ролях: Дэйн ДеХаан, Джейсон Айзекс, Миа Гот, Иво Нанди, Адриан Шиллер, Селия Имри, Гарри Гронер, Томас Норстрем, Ашок Манданна, Магнус Креппер

О фильме:
Молодой, но перспективный брокер из динамично развивающейся компании приезжает в закрытый санаторий в Альпах, чтобы срочно забрать и вернуть в лоно родного офиса своего босса. Но тот категорически не хочет никуда уезжать, так как давно и плотно подсел на местную лечебную воду с витаминами и биодобавками. Тем более, в результате несчастного случая молодой человек и сам становится вынужденным пациентом водной здравницы. После приема внутрь нескольких стаканов с чудодейственной амброзией бедняге начинает казаться, будто бы у него вытекли глаза и выпали передние зубы, а под кожей завелись черви. Терзаемый смутными сомнениями, он начинает собственное расследование


Страна: Германия, США
Студия: Blind Wink Productions, New Regency Productions
Продолжительность: 02:26:33
Перевод: Любительский многоголосый | Paradox&Omskbird Records

Файл
Качество: HDRip-AVC
Видео: [email protected], 960x540, ~1289 Kbit/s, 23.976 fps
Аудио #01: AAC, 2.0, ~64 Kbps | Paradox&Omskbird Records | RUS |
Аудио #02: AAC, 2.0, ~64 Kbps | Оригинал | ENG |
Субтитры: Английские



General
Unique ID : 184141989512390759420306723835520032561 (0x8A887508933896159280EDE83EC11F31)
Complete name : F:FILMSНОВЫЕЛекарство от здоровья.(2016).HDRIP-AVC.[-=DoMiNo=-].mkv
Format : Matroska
Format version : Version 4 / Version 2
File size : 1.45 GiB
Duration : 2 h 26 min
Overall bit rate : 1 418 kb/s
Movie name : Лекарство от здоровья
Deion : Молодой амбициозный сотрудник отправляется в затерянный в швейцарских Альпах оздоровительный центр, чтобы вернуть оттуда руководителя своей компании. Но по прибытии он понимает, что чудодейственные процедуры спа-салона вовсе не те, чем кажутся. В то время как парень начинает распутывать страшные тайны этого места, его здравый ум проходит настоящую проверку на прочность. Похоже, теперь он страдает той же странной болезнью, по причине которой здесь остаются другие гости центра, желающие получить свою дозу лекарства.
Encoded date : UTC 2017-06-02 03:32:58
Writing application : mkvmerge v12.0.0 ('Trust / Lust') 64bit
Writing library : libebml v1.3.4 + libmatroska v1.4.5 / Lavf57.71.100
Attachments : poster.jpg
ACTORS : Дэйн ДеХаан, Джейсон Айзекс, Миа Гот, Иво Нанди, Адриан Шиллер, Селия Имри, Гарри Гронер, Томас Норстрем, Ашок Манданна, Магнус Креппер, Питер Бенедикт, Михаэль Мендль, Мэгги Стид, Крэйг Ро, Дэвид Бишинс, Лиза Бейнс, Карл Ламбли, Том Флинн, Эрик Тодд, Джейсон Бабински, Йоханнес Криш, Ребекка Стрит, Берт Тишендорф, Дуглас Хэмилтон, Дэниэл Мишель, Леонард Кунц, Лузи Шуритцел, Наташа Лависцус, София Шарлотта Конрад, Манон Кайл, Адриан Цвикер, Джефф Баррелл, Джулия Грэфнер, Нино Боэло, Надин Боэске, Аксель Бухгольц, Давид Бредин, Маттиас Бричги, Андреас Добберкау, Сара Франке, Годехард Гизе, Юдит Хёрш, Анджелина Хэнч, Каспар Кэсер, Себастиан Кауфмане, Мартин Лауэ, Аннетт Лобер, Бенедикт Сейферт, Роман Шомбург, Флориан Стиффенс, Свен Тиммрек, Ханна Волльшлагер, Сюзанна Вуэст, Джеф Байонн, Клаус Буркхардт, Гельмут Боэллинг, Ренате Прак, Маттиас Рик, Петер Симлингер, Ютта Марина Фон Брюнкау, Наталия Бобрич, Марко Бузин, Крис Хушар, Мэтт Линдквист, Джонни Отто, Эрл Винсент Шервуд II, Давид Санчес Кальво, Крис Тайсингер, Александр Яссин
COMPOSER : Бенджамин Уоллфисч
COUNTRY : Германия, США
DATE : 2016
DIRECTOR : Гор Вербински
ENCODING_INFO : MATROSKA,WEBM > MKV Произвольный / H264 > X264 VBR-2P 1289kbps Произвольный / DTS > AAC CBR 64kbps HE / DTS > AAC CBR 64kbps HE
GENRE : Ужасы, фантастика, фэнтези, триллер, драма, детектив
HD_VIDEO : 1
IMDB_RATING : 6.50
ITUNEXTC : mpaa|R|400|
Language : und
MEDIA_TYPE : 9
ORIGINAL_TITLE : A Cure for Wellness
PRODUCER : Дэвид Крокетт, Арнон Милчен, Морган Де Грозейер, Кристоф Фиссер, Джастин Хэйс, Хеннинг Мольфентер, Арно Ньюбауэр, Гор Вербински, Чарли Вебкен
RATING : 6.202
WRITER : Джастин Хэйс, Гор Вербински

Video
ID : 1
Format : AVC
Format/Info : Advanced Video Codec
Format profile : [email protected]
Format settings, CABAC : Yes
Format settings, ReFrames : 10 frames
Codec ID : V_MPEG4/ISO/AVC
Duration : 2 h 26 min
Bit rate : 1 289 kb/s
Width : 960 pixels
Height : 540 pixels
Display aspect ratio : 16:9
Frame rate mode : Constant
Frame rate : 23.976 (24000/1001) FPS
Color space : YUV
Chroma subsampling : 4:2:0
Bit depth : 8 bits
Scan type : Progressive
Bits/(Pixel*Frame) : 0.104
Stream size : 1.32 GiB (91%)
Title : RIP_BY_-=DoMiNo=-
Writing library : x264 core 150 r2833M df79067
Encoding settings : cabac=1 / ref=10 / deblock=1:-3:-3 / analyse=0x3:0x133 / me=umh / subme=11 / psy=1 / psy_rd=1.00:0.10 / mixed_ref=1 / me_range=56 / chroma_me=1 / trellis=2 / 8x8dct=1 / cqm=0 / deadzone=21,11 / fast_pskip=0 / chroma_qp_offset=-3 / threads=6 / lookahead_threads=1 / sliced_threads=0 / nr=0 / decimate=1 / interlaced=0 / bluray_compat=0 / constrained_intra=0 / bframes=12 / b_pyramid=2 / b_adapt=2 / b_bias=0 / direct=3 / weightb=1 / open_gop=0 / weightp=2 / keyint=230 / keyint_min=23 / scenecut=40 / intra_refresh=0 / rc_lookahead=60 / rc=2pass / mbtree=1 / bitrate=1289 / ratetol=1.0 / qcomp=0.65 / qpmin=0 / qpmax=69 / qpstep=4 / cplxblur=20.0 / qblur=0.5 / ip_ratio=1.40 / aq=1:1.00
Language : English
Default : Yes
Forced : No
Color range : Limited
Matrix coefficients : BT.709

Audio #1
ID : 2
Format : AAC
Format/Info : Advanced Audio Codec
Format profile : HE-AAC / LC
Codec ID : A_AAC
Duration : 2 h 26 min
Bit rate : 62.7 kb/s
Channel(s) : 2 channels
Channel positions : Front: L R
Sampling rate : 48.0 kHz / 24.0 kHz
Frame rate : 23.438 FPS (1024 spf)
Compression mode : Lossy
Stream size : 65.7 MiB (4%)
Title : MVO_Paradox&Omskbird Records
Language : Russian
Default : Yes
Forced : No

Audio #2
ID : 3
Format : AAC
Format/Info : Advanced Audio Codec
Format profile : HE-AAC / LC
Codec ID : A_AAC
Duration : 2 h 26 min
Bit rate : 64.0 kb/s
Channel(s) : 2 channels
Channel positions : Front: L R
Sampling rate : 48.0 kHz / 24.0 kHz
Frame rate : 23.438 FPS (1024 spf)
Compression mode : Lossy
Stream size : 67.1 MiB (5%)
Title : Original
Language : English
Default : No
Forced : No

Text
ID : 4
Format : UTF-8
Codec ID : S_TEXT/UTF8
Codec ID/Info : UTF-8 Plain Text
Duration : 2 h 20 min
Bit rate : 37 b/s
Count of elements : 1475
Stream size : 38.4 KiB (0%)
Title : SDH
Language : English
Default : Yes
Forced : No

Menu
00:00:00.000 : : Chapter 1
00:03:37.092 : : Chapter 2
00:09:18.349 : : Chapter 3
00:13:22.343 : : Chapter 4
00:16:55.681 : : Chapter 5
00:22:49.910 : : Chapter 6
00:27:42.035 : : Chapter 7
00:32:01.878 : : Chapter 8
00:38:23.843 : : Chapter 9
00:44:51.397 : : Chapter 10
00:51:22.162 : : Chapter 11
00:56:50.782 : : Chapter 12
01:01:31.062 : : Chapter 13
01:08:08.293 : : Chapter 14
01:13:12.221 : : Chapter 15
01:17:02.284 : : Chapter 16
01:21:08.447 : : Chapter 17
01:25:17.195 : : Chapter 18
01:29:20.355 : : Chapter 19
01:34:59.277 : : Chapter 20
01:40:19.513 : : Chapter 21
01:43:49.181 : : Chapter 22
01:47:46.794 : : Chapter 23
01:52:30.661 : : Chapter 24
01:56:30.775 : : Chapter 25
02:04:22.121 : : Chapter 26
02:09:17.458 : : Chapter 27
02:19:59.057 : : Chapter 28


   
Торрент: Зарегистрирован [03 июн 2017, 11:50] Скачать торрент
Скачать торрент
[ Размер 15.55 КБ / Просмотров 319 ]

Статус:
 
Приватный: Нет (DHT включён)
Размер: 1.45 ГБ (1 558 691 306 байт)
   
Аватара пользователя

Администратор
Администратор
 
Раздал: 2.36 ПБ
Скачал: 1.02 ПБ
Ратио: 2.311
Сообщения: 3722
Зарегистрирован: 07 май 2010, 17:29
Medals: 1
Лучший релиз за месяц (1)
  • Личное сообщение
  • ICQ

Вернуться в Фильмы 2016 (новинки)

Кто сейчас на конференции

Зарегистрированные пользователи: нет зарегистрированных пользователей

cron
Ресурс не предоставляет электронные версии произведений, а занимается лишь коллекционированием и каталогизацией ссылок, присылаемых и публикуемых на форуме нашими читателями. Если вы являетесь правообладателем какого-либо представленного материала и не желаете чтобы ссылка на него находилась в нашем каталоге, свяжитесь с нами и мы незамедлительно удалим её. Файлы для обмена на трекере предоставлены пользователями сайта, и администрация не несёт ответственности за их содержание. Просьба не заливать файлы, защищенные авторскими правами, а также файлы нелегального содержания!
cron