Собачья жизнь / A Dog's Purpose (2017) BDRip 1080p от ExKinoRay | iTunes скачать торрент

Киноновинки, новинки кинопроката, горячие новинки

Модератор: Модераторы видео

  • Статистика раздачи
Размер: 9.01 ГБ   |  Зарегистрирован: 25 май 2017, 08:08   |   .torrent скачан: 6658 раз
Сидеров: 2206  [ 0 байт/сек ]     Личеров: 234  [ 0 байт/сек ]  
Список файлов : Кто скачал : Раздают : Скачивают : Кто благодарил : История : Не раздающие : Запрашивали сидеров : Внешние трекеры 
  

Собачья жизнь / A Dog's Purpose (2017) BDRip 1080p от ExKinoRay | iTunes

Сообщение Админ » 25 май 2017, 08:08

Информация о фильме
Название: Собачья жизнь
Оригинальное название: A Dog's Purpose
Год выхода: 2017
Жанр: Фэнтези, драма, Комедия, приключения, семейный, экранизация
Режиссер: Лассе Халльстрём
В ролях: Джош Гэд, Дэннис Куэйд, Пегги Липтон, Кей Джей Апа, Брайс Гейзар, Джульет Райлэнс, Люк Кирби, Габриель Роз, Майкл Бофшевер, Бритт Робертсон

О фильме:
Собаки бывают разных пород, мастей и размеров. Они — наши самые верные и преданные друзья, а мы учим их хорошим манерам. Собаки всегда думают о нас, правда, иногда и о беконе. Все они каждый день провожают и встречают нас у порога в уверенности, что пока им есть, кого облизывать и любить, в их жизни есть смысл


Страна: США
Студия: Amblin Entertainment, Original Pictures
Продолжительность: 01:40:02
Перевод: Дублированный | iTunes

Файл
Качество: BDRip 1080p
Видео: MPEG-4 AVC, 1920x804, 11.0 Mbit/s, 23.976 fps
Звук:
Аудио #01: 48 kHz, AC3, 5.1, 384 Kbps | Дублированный | iTunes | RUS |
Аудио #02: 48 kHz, DTS, 5.1, 1510 Kbps | Оригинал | ENG |
Субтитры: Английские



General
Unique ID : 194385671801658645825015746861709682659 (0x923D51904FABCC20AA0794B1C6EC67E3)
Complete name : C:UsersbattiDesktopA.Dogs.Purpose.2017.BDRip.1080p.ExKInoRay.mkv
Format : Matroska
Format version : Version 4 / Version 2
File size : 9.01 GiB
Duration : 1 h 40 min
Overall bit rate : 12.9 Mb/s
Encoded date : UTC 2017-05-24 21:58:11
Writing application : mkvmerge v12.0.0 ('Trust / Lust') 64bit
Writing library : libebml v1.3.4 + libmatroska v1.4.5

Video
ID : 1
Format : AVC
Format/Info : Advanced Video Codec
Format profile : [email protected]
Format settings, CABAC : Yes
Format settings, ReFrames : 5 frames
Codec ID : V_MPEG4/ISO/AVC
Duration : 1 h 40 min
Bit rate : 11.0 Mb/s
Width : 1 920 pixels
Height : 804 pixels
Display aspect ratio : 2.40:1
Frame rate mode : Constant
Frame rate : 23.976 (24000/1001) FPS
Color space : YUV
Chroma subsampling : 4:2:0
Bit depth : 8 bits
Scan type : Progressive
Bits/(Pixel*Frame) : 0.297
Stream size : 7.68 GiB (85%)
Writing library : x264 core 148 r2665kMod a01e339
Encoding settings : cabac=1 / ref=5 / deblock=1:-3:-3 / analyse=0x3:0x133 / me=umh / subme=11 / psy=1 / fade_compensate=0.00 / psy_rd=0.85:0.00 / mixed_ref=1 / me_range=48 / chroma_me=1 / trellis=2 / 8x8dct=1 / cqm=0 / deadzone=21,11 / fast_pskip=0 / chroma_qp_offset=-2 / threads=24 / lookahead_threads=4 / sliced_threads=0 / nr=0 / decimate=0 / interlaced=0 / bluray_compat=0 / constrained_intra=0 / fgo=0 / bframes=8 / b_pyramid=2 / b_adapt=2 / b_bias=0 / direct=3 / weightb=1 / open_gop=0 / weightp=2 / keyint=240 / keyint_min=24 / scenecut=40 / intra_refresh=0 / rc=2pass / mbtree=0 / bitrate=11000 / ratetol=1.0 / qcomp=0.70 / qpmin=0 / qpmax=69 / qpstep=4 / cplxblur=20.0 / qblur=0.5 / ip_ratio=1.20 / pb_ratio=1.20 / aq=3:0.80
Language : English
Default : Yes
Forced : No

Audio #1
ID : 2
Format : AC-3
Format/Info : Audio Coding 3
Format settings, Endianness : Big
Codec ID : A_AC3
Duration : 1 h 40 min
Bit rate mode : Constant
Bit rate : 384 kb/s
Channel(s) : 6 channels
Channel positions : Front: L C R, Side: L R, LFE
Sampling rate : 48.0 kHz
Frame rate : 31.250 FPS (1536 spf)
Bit depth : 16 bits
Compression mode : Lossy
Stream size : 275 MiB (3%)
Title : iTunes
Language : Russian
Service kind : Complete Main
Default : Yes
Forced : No

Audio #2
ID : 3
Format : DTS
Format/Info : Digital Theater Systems
Mode : 16
Format settings, Endianness : Big
Codec ID : A_DTS
Duration : 1 h 40 min
Bit rate mode : Constant
Bit rate : 1 509 kb/s
Channel(s) : 6 channels
Channel positions : Front: L C R, Side: L R, LFE
Sampling rate : 48.0 kHz
Frame rate : 93.750 FPS (512 spf)
Bit depth : 24 bits
Compression mode : Lossy
Stream size : 1.05 GiB (12%)
Title : Original
Language : English
Default : No
Forced : No

Text
ID : 4
Format : UTF-8
Codec ID : S_TEXT/UTF8
Codec ID/Info : UTF-8 Plain Text
Duration : 1 h 35 min
Bit rate : 66 b/s
Count of elements : 1862
Stream size : 46.5 KiB (0%)
Title : Full
Language : English
Default : No
Forced : No

Menu
00:00:00.000 : en:00:00:00.000
00:04:39.779 : en:00:04:39.779
00:08:54.409 : en:00:08:54.409
00:14:10.308 : en:00:14:10.308
00:17:46.482 : en:00:17:46.482
00:22:38.607 : en:00:22:38.607
00:28:33.003 : en:00:28:33.003
00:33:45.482 : en:00:33:45.482
00:37:26.703 : en:00:37:26.703
00:42:16.117 : en:00:42:16.117
00:48:31.534 : en:00:48:31.534
00:51:24.248 : en:00:51:24.248
00:56:04.736 : en:00:56:04.736
01:01:12.669 : en:01:01:12.669
01:05:40.311 : en:01:05:40.311
01:12:03.069 : en:01:12:03.069
01:16:24.497 : en:01:16:24.497
01:21:07.988 : en:01:21:07.988
01:27:57.939 : en:01:27:57.939
01:33:40.615 : en:01:33:40.615


Релиз от: Автор релиза: Подпишись на меня:
   
Торрент: Зарегистрирован [25 май 2017, 08:08] За каждые 2 ГБ. аплоада (сидирования) этого торрента начисляется бонус: 0.001 Скачать торрент
Скачать торрент
О MediaGet
[ Размер 46.03 КБ / Просмотров 239 ]

Статус:
 
Приватный: Нет (DHT включён)
Размер: 9.01 ГБ (9 669 145 728 байт)
   
Аватара пользователя

Администратор
Администратор
 
Раздал: 2.33 ПБ
Скачал: 1.02 ПБ
Ратио: 2.281
Сообщения: 3723
Зарегистрирован: 07 май 2010, 17:29
Medals: 1
Лучший релиз за месяц (1)
  • Личное сообщение
  • ICQ

Вернуться в Фильмы 2016 (новинки)

Кто сейчас на конференции

Зарегистрированные пользователи: нет зарегистрированных пользователей

Ресурс не предоставляет электронные версии произведений, а занимается лишь коллекционированием и каталогизацией ссылок, присылаемых и публикуемых на форуме нашими читателями. Если вы являетесь правообладателем какого-либо представленного материала и не желаете чтобы ссылка на него находилась в нашем каталоге, свяжитесь с нами и мы незамедлительно удалим её. Файлы для обмена на трекере предоставлены пользователями сайта, и администрация не несёт ответственности за их содержание. Просьба не заливать файлы, защищенные авторскими правами, а также файлы нелегального содержания!
cron