Яна+Янко (2017) WEB-DLRip-AVC от ExKinoRay скачать торрент

Киноновинки, новинки кинопроката, горячие новинки

Модератор: Модераторы видео

  • Статистика раздачи
Размер: 1.47 ГБ   |  Зарегистрирован: 11 май 2017, 13:47   |   .torrent скачан: 29653 раз
Сидеров: 6267  [ 0 байт/сек ]     Личеров: 653  [ 0 байт/сек ]  
Список файлов : Кто скачал : Раздают : Скачивают : Кто благодарил : История : Не раздающие : Запрашивали сидеров : Внешние трекеры 
  

Яна+Янко (2017) WEB-DLRip-AVC от ExKinoRay

Сообщение Админ » 11 май 2017, 13:47

Информация о фильме
Оригинальное название: Яна+Янко
Год выпуска: 2017
Жанр: Семейный, Комедия
Выпущено: Россия, Кинокомпания «Магнум»
Режиссер: Наталья Меркулова
В ролях: Олеся Судзиловская, Даниль Зинатуллин, Максим Виторган, Артур Смольянинов, Владимир Мишуков, Александр Ревва, Тинатин Далакишвили, Екатерина Стеблина, Наталья Иохвидова, Кирилл Каганович
О фильме: Яна Титова - весьма успешная бизнес-леди, главный редактор модного глянцевого журнала. Она считает себя самодостаточной, состоявшейся в жизни женщиной и поддерживает "чайл-фри". Яну совершенно не беспокоит, что в тридцать восемь лет у неё нет ни мужа, ни детей. Добившись популярности, Яна уверенно идёт вперед, не желая поступаться собственными принципами. Но неожиданно над благополучием Яны сгущаются тучи, и чтобы укрепить едва не утерянные позиции, она соглашается на немыслимый шаг, решив усыновить ребенка. Яна забирает к себе из детдома маленького цыганёнка по имени Янко. Вот только Яна даже и не подозревала, чем обернётся для неё такой пиар-ход.
Файл
Качество: WEB-DLRip (AVC)
Видео: MPEG-4 AVC, 1024x428 (2.40:1), 24.000 fps, ~1790 kbps avg, 0.170 bit/pixel
Аудио: AC-3, 48.0 KHz, 5.1 ch, 384 Kbps, CBR (Russian)
Продолжительность: 01:36:33
Язык: Русский

General
Unique ID : 211270327743033112608180191154418278150 (0x9EF12F5FD5D90C048ED8BC804344DF06)
Complete name : D:Yana.Yank0.2017.O.WEB-DLRip.AVC.ExKinoRay.mkv
Format : Matroska
Format version : Version 4 / Version 2
File size : 1.47 GiB
Duration : 1 h 36 min
Overall bit rate : 2 175 kb/s
Movie name : Яна+Янко (2017) from ExKinoRay
Encoded date : UTC 2017-05-11 00:48:52
Writing application : mkvmerge v7.6.0 ('Garden of Dreams') 32bit built on Feb 11 2015 00:18:47
Writing library : libebml v1.3.1 + libmatroska v1.4.2

Video
ID : 1
Format : AVC
Format/Info : Advanced Video Codec
Format profile : [email protected]
Format settings, CABAC : Yes
Format settings, ReFrames : 10 frames
Codec ID : V_MPEG4/ISO/AVC
Duration : 1 h 36 min
Bit rate : 1 790 kb/s
Width : 1 024 pixels
Height : 428 pixels
Display aspect ratio : 2.40:1
Frame rate mode : Constant
Frame rate : 24.000 FPS
Color space : YUV
Chroma subsampling : 4:2:0
Bit depth : 8 bits
Scan type : Progressive
Bits/(Pixel*Frame) : 0.170
Stream size : 1.21 GiB (82%)
Title : Enigma
Writing library : x264 core 144 r2525 40bb568
Encoding settings : cabac=1 / ref=10 / deblock=1:-2:-2 / analyse=0x3:0x113 / me=umh / subme=10 / psy=1 / psy_rd=1.05:0.10 / mixed_ref=1 / me_range=32 / chroma_me=1 / trellis=2 / 8x8dct=1 / cqm=0 / deadzone=21,11 / fast_pskip=1 / chroma_qp_offset=-3 / threads=12 / lookahead_threads=2 / sliced_threads=0 / nr=0 / decimate=0 / interlaced=0 / bluray_compat=0 / constrained_intra=0 / bframes=9 / b_pyramid=2 / b_adapt=2 / b_bias=0 / direct=3 / weightb=1 / open_gop=0 / weightp=2 / keyint=240 / keyint_min=24 / scenecut=40 / intra_refresh=0 / rc_lookahead=40 / rc=2pass / mbtree=0 / bitrate=1790 / ratetol=1.0 / qcomp=0.60 / qpmin=0 / qpmax=51 / qpstep=4 / cplxblur=20.0 / qblur=0.5 / vbv_maxrate=50000 / vbv_bufsize=62500 / nal_hrd=none / filler=0 / ip_ratio=1.40 / pb_ratio=1.30 / aq=1:1.00
Default : Yes
Forced : No
Color range : Limited
Color primaries : BT.709
Transfer characteristics : BT.709
Matrix coefficients : BT.709

Audio
ID : 2
Format : AC-3
Format/Info : Audio Coding 3
Mode extension : CM (complete main)
Format settings, Endianness : Big
Codec ID : A_AC3
Duration : 1 h 36 min
Bit rate mode : Constant
Bit rate : 384 kb/s
Channel(s) : 6 channels
Channel positions : Front: L C R, Side: L R, LFE
Sampling rate : 48.0 kHz
Frame rate : 31.250 FPS (1536 spf)
Compression mode : Lossy
Stream size : 265 MiB (18%)
Language : Russian
Default : Yes
Forced : No

Menu
00:00:00.000 : en:Глава 1
00:04:53.166 : en:Глава 2
00:09:58.624 : en:Глава 3
00:14:58.207 : en:Глава 4
00:21:44.373 : en:Глава 5
00:27:18.039 : en:Глава 6
00:33:02.039 : en:Глава 7
00:38:15.414 : en:Глава 8
00:42:47.580 : en:Глава 9
00:47:59.413 : en:Глава 10
00:54:11.663 : en:Глава 11
00:58:17.496 : en:Глава 12
01:03:03.704 : en:Глава 13
01:08:51.537 : en:Глава 14
01:13:56.828 : en:Глава 15
01:20:29.369 : en:Глава 16
01:25:37.327 : en:Глава 17
01:29:53.118 : en:Глава 18





Релиз от:

Автор релиза:
   
Торрент: Зарегистрирован [11 май 2017, 13:47] Скачать торрент
Скачать торрент
О MediaGet
[ Размер 15.68 КБ / Просмотров 92 ]

Статус:
 
Приватный: Нет (DHT включён)
Размер: 1.47 ГБ (1 575 305 640 байт)
   
Аватара пользователя

Администратор
Администратор
 
Раздал: 2.33 ПБ
Скачал: 1.02 ПБ
Ратио: 2.281
Сообщения: 3723
Зарегистрирован: 07 май 2010, 17:29
Medals: 1
Лучший релиз за месяц (1)
  • Личное сообщение
  • ICQ

Вернуться в Фильмы 2016 (новинки)

Кто сейчас на конференции

Зарегистрированные пользователи: нет зарегистрированных пользователей

Ресурс не предоставляет электронные версии произведений, а занимается лишь коллекционированием и каталогизацией ссылок, присылаемых и публикуемых на форуме нашими читателями. Если вы являетесь правообладателем какого-либо представленного материала и не желаете чтобы ссылка на него находилась в нашем каталоге, свяжитесь с нами и мы незамедлительно удалим её. Файлы для обмена на трекере предоставлены пользователями сайта, и администрация не несёт ответственности за их содержание. Просьба не заливать файлы, защищенные авторскими правами, а также файлы нелегального содержания!
cron