Видели ночь / All Nighter (2017) BDRip 1080p от ExKinoRay | iTunes скачать торрент

Киноновинки, новинки кинопроката, горячие новинки

Модератор: Модераторы видео

  • Статистика раздачи
Размер: 8.75 ГБ   |  Зарегистрирован: 08 май 2017, 14:26   |   .torrent скачан: 625 раз
Сидеров: 368  [ 0 байт/сек ]     Личеров: 153  [ 0 байт/сек ]  
Список файлов : Кто скачал : Раздают : Скачивают : Кто благодарил : История : Не раздающие : Запрашивали сидеров : Внешние трекеры 
  

Видели ночь / All Nighter (2017) BDRip 1080p от ExKinoRay | iTunes

Сообщение Админ » 08 май 2017, 14:26

Информация о фильме
Название: Видели ночь
Оригинальное название: All Nighter
Год выхода: 2017
Жанр: Комедия
Режиссер: Гэвин Вьесен
В ролях: Анали Типтон, Дж.К. Симмонс, Эмиль Хирш, Кристен Шаал, Шеннон Мари Вудворд, Таран Киллэм, Хантер Пэрриш, Джон Дэйли, Стефани Аллен, Джон Басс

О фильме:
С тех пор как Джинни решила порвать с ним, Мартин не может прийти в себя. Его квартира постепенно превращается в помойку, как и вся его незамысловатая жизнь, которая так и катилась бы под откос, если бы однажды на его пороге не появился мистер Галло, злобный и надменный папаша Джинни. Какое-то время назад он потерял связь со своей дочкой и Мартин — его единственная зацепка. Несмотря на все его протесты, мистер Галло, не привыкший получать отказы, втягивает Мартина в безбашенное ночное приключение на улицах Лос-Анжелеса


Страна: США
Студия: Green Hummingbird Entertainment, Raptor Films
Продолжительность: 01:25:55
Перевод: Дублированный | iTunes

Файл
Качество: BDRip 1080p
Видео: MPEG-4 AVC, 1918x792, 12.7 Mbit/s, 23.976 fps
Звук:
Аудио #01: 48 kHz, AC3, 5.1, 384 Kbps | Дублированный | iTunes | RUS |
Аудио #02: 48 kHz, DTS, 5.1, 1510 Kbps | Оригинал | ENG |
Субтитры: Английские



General
Unique ID : 188258313253538526933297625965326713601 (0x8DA13B76897DC4628185255F716F4301)
Complete name : F:VideoAll.Nighter.2017.BDRip.1080p.ExKinoRay.mkv
Format : Matroska
Format version : Version 4 / Version 2
File size : 8.75 GiB
Duration : 1 h 25 min
Overall bit rate : 14.6 Mb/s
Encoded date : UTC 2017-05-07 21:11:33
Writing application : mkvmerge v11.0.0 ('Alive') 64bit
Writing library : libebml v1.3.4 + libmatroska v1.4.5

Video
ID : 1
Format : AVC
Format/Info : Advanced Video Codec
Format profile : [email protected]
Format settings, CABAC : Yes
Format settings, ReFrames : 5 frames
Codec ID : V_MPEG4/ISO/AVC
Duration : 1 h 25 min
Bit rate : 12.7 Mb/s
Width : 1 918 pixels
Height : 792 pixels
Display aspect ratio : 2.40:1
Frame rate mode : Constant
Frame rate : 23.976 (24000/1001) FPS
Color space : YUV
Chroma subsampling : 4:2:0
Bit depth : 8 bits
Scan type : Progressive
Bits/(Pixel*Frame) : 0.348
Stream size : 7.62 GiB (87%)
Writing library : x264 core 148 r2699 a5e06b9
Encoding settings : cabac=1 / ref=5 / deblock=1:-3:-3 / analyse=0x3:0x113 / me=umh / subme=11 / psy=1 / psy_rd=1.00:0.00 / mixed_ref=1 / me_range=48 / chroma_me=1 / trellis=2 / 8x8dct=1 / cqm=0 / deadzone=21,11 / fast_pskip=1 / chroma_qp_offset=-2 / threads=12 / lookahead_threads=3 / sliced_threads=0 / nr=0 / decimate=0 / interlaced=0 / bluray_compat=0 / constrained_intra=0 / bframes=16 / b_pyramid=2 / b_adapt=2 / b_bias=0 / direct=3 / weightb=1 / open_gop=0 / weightp=2 / keyint=240 / keyint_min=24 / scenecut=40 / intra_refresh=0 / rc=crf / mbtree=0 / crf=17.0 / qcomp=0.62 / qpmin=0 / qpmax=69 / qpstep=4 / ip_ratio=1.36 / pb_ratio=1.20 / aq=3:0.76
Language : English
Default : Yes
Forced : No
Color range : Limited
Color primaries : BT.709
Transfer characteristics : BT.709
Matrix coefficients : BT.709

Audio #1
ID : 2
Format : AC-3
Format/Info : Audio Coding 3
Format settings, Endianness : Big
Codec ID : A_AC3
Duration : 1 h 25 min
Bit rate mode : Constant
Bit rate : 384 kb/s
Channel(s) : 6 channels
Channel positions : Front: L C R, Side: L R, LFE
Sampling rate : 48.0 kHz
Frame rate : 31.250 FPS (1536 spf)
Bit depth : 16 bits
Compression mode : Lossy
Delay relative to video : -83 ms
Stream size : 236 MiB (3%)
Title : iTunes
Language : Russian
Service kind : Complete Main
Default : Yes
Forced : No

Audio #2
ID : 3
Format : DTS
Format/Info : Digital Theater Systems
Mode : 16
Format settings, Endianness : Big
Codec ID : A_DTS
Duration : 1 h 25 min
Bit rate mode : Constant
Bit rate : 1 509 kb/s
Channel(s) : 6 channels
Channel positions : Front: L C R, Side: L R, LFE
Sampling rate : 48.0 kHz
Frame rate : 93.750 FPS (512 spf)
Bit depth : 24 bits
Compression mode : Lossy
Delay relative to video : -83 ms
Stream size : 927 MiB (10%)
Title : Original
Language : English
Default : No
Forced : No

Text
ID : 4
Format : UTF-8
Codec ID : S_TEXT/UTF8
Codec ID/Info : UTF-8 Plain Text
Duration : 1 h 20 min
Bit rate : 76 b/s
Count of elements : 1663
Stream size : 45.0 KiB (0%)
Title : Full
Language : English
Default : No
Forced : No

Menu
00:00:00.000 : en: Chapter 1
00:12:17.237 : en: Chapter 2
00:24:11.450 : en: Chapter 3
00:34:18.390 : en: Chapter 4
00:48:01.128 : en: Chapter 5
00:59:37.157 : en: Chapter 6
01:10:59.505 : en: Chapter 7
01:20:11.890 : en: Chapter 8


Релиз от: Автор релиза: Подпишись на меня:
   
Торрент: Зарегистрирован [08 май 2017, 14:26] За каждые 2 ГБ. аплоада (сидирования) этого торрента начисляется бонус: 0.001 Скачать торрент
Скачать торрент
О MediaGet
[ Размер 44.75 КБ / Просмотров 70 ]

Статус:
 
Приватный: Нет (DHT включён)
Размер: 8.75 ГБ (9 398 985 067 байт)
   
Аватара пользователя

Администратор
Администратор
 
Раздал: 2.33 ПБ
Скачал: 1.02 ПБ
Ратио: 2.281
Сообщения: 3723
Зарегистрирован: 07 май 2010, 17:29
Medals: 1
Лучший релиз за месяц (1)
  • Личное сообщение
  • ICQ

Вернуться в Фильмы 2016 (новинки)

Кто сейчас на конференции

Зарегистрированные пользователи: Roman111

Ресурс не предоставляет электронные версии произведений, а занимается лишь коллекционированием и каталогизацией ссылок, присылаемых и публикуемых на форуме нашими читателями. Если вы являетесь правообладателем какого-либо представленного материала и не желаете чтобы ссылка на него находилась в нашем каталоге, свяжитесь с нами и мы незамедлительно удалим её. Файлы для обмена на трекере предоставлены пользователями сайта, и администрация не несёт ответственности за их содержание. Просьба не заливать файлы, защищенные авторскими правами, а также файлы нелегального содержания!
cron