Приземление / The Landing (2013) WEB-DLRip-AVC | L1 скачать торрент

Киноновинки, новинки кинопроката, горячие новинки

Модератор: Модераторы видео

  • Статистика раздачи
Размер: 304.38 МБ   |  Зарегистрирован: 10 фев 2017, 02:27   |   .torrent скачан: 1024 раз
Сидеров: 420  [ 0 байт/сек ]     Личеров: 46  [ 0 байт/сек ]  
Список файлов : Кто скачал : Раздают : Скачивают : Кто благодарил : История : Не раздающие : Запрашивали сидеров : Внешние трекеры 
  

Приземление / The Landing (2013) WEB-DLRip-AVC | L1

Сообщение Админ » 10 фев 2017, 02:27

Приземление / The Landing

Страна: Австралия
Производство: Perception Pictures
Год выпуска: 2013
Жанр: короткометражка, фантастика, триллер, драма
Продолжительность: 00:17:44

Режиссер: Джош Тэннер
Авторы сценария: Джош Тэннер, Джейд Ван Дер Ли

В ролях: Генри Никсон, Дэвид Робертс, Том Ашер, Джеймс Кирни, Кевин Делани, Десмонд Келли, Пэтси Террелл

Описание: Эдвард возвращается на ферму, расположенную на Среднем Западе США, в отчаянной попытке открыть миру ужасную правду, скрытую под покровом земли со времён его детства…



Перевод: Любительский (одноголосый, закадровый) | DeeAFilm Studio
Озвучил: Михаил Дипалом
Субтитры: русские, английские


Качество: WEB-DLRip-AVC
Формат: МКV
Видео кодек: AVC
Аудио кодек: AAC
Видео: 1152x490 (2.35:1), 25.000 fps, MPEG-4 AVC ~2 088 kbps avg
Аудио №1: 48.0 kHz, Advanced Audio Codec LC, 2/0 (L,R) ch, ~148 kbps | RUS
Аудио №2: 48.0 kHz, Advanced Audio Codec LC, 2/0 (L,R) ch, ~160 kbps | ENG
Формат субтитров: UTF-8 Plain Text

Дата премьеры (мир): 12 октября 2013



General
Уникальный идентификатор : 252060371740973308853230852228067906973 (0xBDA10FD059D22B1C8684455BBF4C559D)
Полное имя : The Landing.2013.WEB-DLRip-AVC.mkv
Формат : Matroska
Версия формата : Version 4 / Version 2
Размер файла : 304 Мбайт
Продолжительность : 17 м.
Общий поток : 2399 Кбит/сек
Название фильма : The Landing.2013.WEB-DLRip-AVC -Azureus-
Дата кодирования : UTC 2017-01-31 22:01:39
Программа кодирования : mkvmerge v9.4.0 ('Knurl') 64bit
Библиотека кодирования : libebml v1.3.4 + libmatroska v1.4.5

Видео
Идентификатор : 1
Формат : AVC
Формат/Информация : Advanced Video Codec
Профиль формата : [email protected]
Параметр CABAC формата : Да
Параметр ReFrames формата : 11 кадров
Идентификатор кодека : V_MPEG4/ISO/AVC
Продолжительность : 17 м.
Битрейт : 2088 Кбит/сек
Ширина : 1152 пикселя
Высота : 490 пикселей
Соотношение сторон : 2,35:1
Режим частоты кадров : Постоянный
Частота кадров : 25,000 кадров/сек
Цветовое пространство : YUV
Субдискретизация насыщенности : 4:2:0
Битовая глубина : 8 бит
Тип развёртки : Прогрессивная
Бит/(Пиксели*Кадры) : 0.148
Размер потока : 265 Мбайт (87%)
Библиотека кодирования : x264 core 148 r2638kMod 7599210
Настройки программы : cabac=1 / ref=11 / deblock=1:-2:-2 / analyse=0x3:0x133 / me=umh / subme=11 / psy=1 / fade_compensate=0.00 / psy_rd=1.00:0.05 / mixed_ref=1 / me_range=48 / chroma_me=1 / trellis=2 / 8x8dct=1 / cqm=0 / deadzone=21,11 / fast_pskip=0 / chroma_qp_offset=-3 / threads=12 / lookahead_threads=3 / sliced_threads=0 / nr=0 / decimate=1 / interlaced=0 / bluray_compat=0 / constrained_intra=0 / fgo=0 / bframes=12 / b_pyramid=2 / b_adapt=2 / b_bias=0 / direct=3 / weightb=1 / open_gop=0 / weightp=2 / keyint=250 / keyint_min=25 / scenecut=40 / intra_refresh=0 / rc_lookahead=60 / rc=crf / mbtree=0 / crf=17.5000 / qcomp=0.60 / qpmin=0 / qpmax=69 / qpstep=4 / vbv_maxrate=50000 / vbv_bufsize=62500 / crf_max=0.0 / nal_hrd=none / filler=0 / ip_ratio=1.40 / pb_ratio=1.30 / aq=3:0.90
Язык : English
Default : Да
Forced : Нет

Аудио #1
Идентификатор : 2
Формат : AAC
Формат/Информация : Advanced Audio Codec
Профиль формата : LC
Идентификатор кодека : A_AAC
Продолжительность : 17 м.
Битрейт : 148 Кбит/сек
Каналы : 2 канала
Расположение каналов : Front: L R
Частота : 48,0 КГц
Частота кадров : 46,875 кадров/сек (1024 spf)
Метод сжатия : С потерями
Задержка видео : 9 мс.
Размер потока : 18,8 Мбайт (6%)
Заголовок : VO - DeeAFilm Studio
Язык : Russian
Default : Да
Forced : Нет

Аудио #2
Идентификатор : 3
Формат : AAC
Формат/Информация : Advanced Audio Codec
Профиль формата : LC
Идентификатор кодека : A_AAC
Продолжительность : 17 м.
Битрейт : 160 Кбит/сек
Каналы : 2 канала
Расположение каналов : Front: L R
Частота : 48,0 КГц
Частота кадров : 46,875 кадров/сек (1024 spf)
Метод сжатия : С потерями
Размер потока : 20,3 Мбайт (7%)
Заголовок : ENG
Язык : English
Default : Нет
Forced : Нет

Текст #1
Идентификатор : 4
Формат : UTF-8
Идентификатор кодека : S_TEXT/UTF8
Идентификатор кодека/Информация : UTF-8 Plain Text
Продолжительность : 16 м.
Битрейт : 65 бит/сек
Count of elements : 122
Размер потока : 7,88 Кбайт (0%)
Заголовок : Rus Sub
Язык : Russian
Default : Нет
Forced : Нет

Текст #2
Идентификатор : 5
Формат : UTF-8
Идентификатор кодека : S_TEXT/UTF8
Идентификатор кодека/Информация : UTF-8 Plain Text
Продолжительность : 16 м.
Битрейт : 28 бит/сек
Count of elements : 108
Размер потока : 3,39 Кбайт (0%)
Заголовок : Eng Sub
Язык : English
Default : Нет
Forced : Нет
   
Торрент: Зарегистрирован [10 фев 2017, 02:27] Скачать торрент
Скачать торрент
[ Размер 12.82 КБ / Просмотров 66 ]

Статус:
 
Приватный: Нет (DHT включён)
Размер: 304.38 МБ (319 169 097 байт)
   
Аватара пользователя

Администратор
Администратор
 
Раздал: 2.33 ПБ
Скачал: 1.02 ПБ
Ратио: 2.281
Сообщения: 3722
Зарегистрирован: 07 май 2010, 17:29
Medals: 1
Лучший релиз за месяц (1)
  • Личное сообщение
  • ICQ

  • Похожие торренты
    Ответы
    Просмотры
    Последнее сообщение

Вернуться в Фильмы 2016 (новинки)

Кто сейчас на конференции

Зарегистрированные пользователи: нет зарегистрированных пользователей

cron
Ресурс не предоставляет электронные версии произведений, а занимается лишь коллекционированием и каталогизацией ссылок, присылаемых и публикуемых на форуме нашими читателями. Если вы являетесь правообладателем какого-либо представленного материала и не желаете чтобы ссылка на него находилась в нашем каталоге, свяжитесь с нами и мы незамедлительно удалим её. Файлы для обмена на трекере предоставлены пользователями сайта, и администрация не несёт ответственности за их содержание. Просьба не заливать файлы, защищенные авторскими правами, а также файлы нелегального содержания!
cron