Неизвестная / La fille inconnue (2016) BDRip 1080p | iTunes скачать торрент

Киноновинки, новинки кинопроката, горячие новинки

Модератор: Модераторы видео

  • Статистика раздачи
Размер: 9.03 ГБ   |  Зарегистрирован: 09 фев 2017, 21:03   |   .torrent скачан: 760 раз
Сидеров: 646  [ 0 байт/сек ]     Личеров: 345  [ 0 байт/сек ]  
Список файлов : Кто скачал : Раздают : Скачивают : Кто благодарил : История : Не раздающие : Запрашивали сидеров : Внешние трекеры 
  

Неизвестная / La fille inconnue (2016) BDRip 1080p | iTunes

Сообщение Админ » 09 фев 2017, 21:03

Неизвестная / La fille inconnue

Страна: Бельгия Франция
Производство: Archipel 35, BE TV, Canal+ [fr], Eurimages, La Wallonie, Les Films du Fleuve, RTBF, Savage Film, VOO
Год выпуска: 2016
Жанр: триллер, драма, криминал
Продолжительность: 01:46:09

Режиссеры: Жан-Пьер Дарденн, Люк Дарденн
Авторы сценария: Жан-Пьер Дарденн, Люк Дарденн

В ролях: Адель Энель, Оливье Бонно, Жереми Ренье, Лука Миннелли, Кристель Корнил, Надеж Уэдраого, Оливье Гурме, Пьер Сумкай, Ив Ларек

Описание: Однажды вечером, закончив приём пациентов, Женни решает не открывать дверь позднему посетителю её хирургического кабинета. На следующий день полиция информирует ее о том, что неподалеку было найдено тело неизвестной девушки. Испытывая тайные угрызения совести, Женни пытается самостоятельно установить личность незнакомки…



Перевод: Профессиональный (многоголосый, закадровый) | iTunes
Субтитры: английские (forced + full)


Качество: BDRip 1080p
Формат: МКV
Видео кодек: AVC
Аудио кодек: АС3 | DTS
Видео: 1920x1040 (1.85:1), 24.000 fps, MPEG-4 AVC ~10.3 Mbps avg
Аудио №1: 48.0 kHz, AC3 Dolby Digital, 3/2 (L,C,R,l,r) + LFE ch, ~384 kbps | RUS
Аудио №2: 48.0 kHz, Digital Theater Systems, 3/2 (L,C,R,l,r) + LFE ch, ~1509 kbps | Fra
Формат субтитров: UTF-8 Plain Text

Дата премьеры (мир): 18 мая 2016
Дата премьеры (РФ): 17 ноября 2016, «Русский Репортаж»



General
Unique ID : 180677434195830606883382177671324462990 (0x87ED3544AF0882B5B5D85547C70D6F8E)
Complete name : The.Unknown.Girl.2016.BDRip.1080p.mkv
Format : Matroska
Format version : Version 4 / Version 2
File size : 9.03 GiB
Duration : 1 h 46 min
Overall bit rate : 12.2 Mb/s
Encoded date : UTC 2017-02-09 07:31:22
Writing application : mkvmerge v8.3.0 ('Over the Horizon') 64bit
Writing library : libebml v1.3.1 + libmatroska v1.4.2

Video
ID : 1
Format : AVC
Format/Info : Advanced Video Codec
Format profile : [email protected]
Format settings, CABAC : Yes
Format settings, ReFrames : 4 frames
Codec ID : V_MPEG4/ISO/AVC
Duration : 1 h 46 min
Bit rate : 10.3 Mb/s
Width : 1 920 pixels
Height : 1 040 pixels
Display aspect ratio : 1.85:1
Frame rate mode : Constant
Frame rate : 24.000 FPS
Color space : YUV
Chroma subsampling : 4:2:0
Bit depth : 8 bits
Scan type : Progressive
Bits/(Pixel*Frame) : 0.215
Stream size : 7.62 GiB (84%)
Writing library : x264 core 148 r2744 b97ae06
Encoding settings : cabac=1 / ref=4 / deblock=1:0:0 / analyse=0x3:0x133 / me=umh / subme=9 / psy=1 / psy_rd=1.00:0.00 / mixed_ref=1 / me_range=16 / chroma_me=1 / trellis=2 / 8x8dct=1 / cqm=0 / deadzone=21,11 / fast_pskip=0 / chroma_qp_offset=-2 / threads=18 / lookahead_threads=1 / sliced_threads=0 / nr=0 / decimate=1 / interlaced=0 / bluray_compat=0 / constrained_intra=0 / bframes=3 / b_pyramid=2 / b_adapt=1 / b_bias=0 / direct=3 / weightb=1 / open_gop=0 / weightp=2 / keyint=250 / keyint_min=24 / scenecut=40 / intra_refresh=0 / rc_lookahead=50 / rc=2pass / mbtree=1 / bitrate=10286 / ratetol=1.0 / qcomp=0.60 / qpmin=0 / qpmax=69 / qpstep=4 / cplxblur=20.0 / qblur=0.5 / ip_ratio=1.40 / aq=1:1.00
Language : English
Default : Yes
Forced : No

Audio #1
ID : 2
Format : AC-3
Format/Info : Audio Coding 3
Mode extension : CM (complete main)
Format settings, Endianness : Big
Codec ID : A_AC3
Duration : 1 h 45 min
Bit rate mode : Constant
Bit rate : 384 kb/s
Channel(s) : 6 channels
Channel positions : Front: L C R, Side: L R, LFE
Sampling rate : 48.0 kHz
Frame rate : 31.250 FPS (1536 spf)
Bit depth : 16 bits
Compression mode : Lossy
Stream size : 291 MiB (3%)
Language : Russian
Default : Yes
Forced : No

Audio #2
ID : 3
Format : DTS
Format/Info : Digital Theater Systems
Mode : 16
Format settings, Endianness : Big
Codec ID : A_DTS
Duration : 1 h 46 min
Bit rate mode : Constant
Bit rate : 1 509 kb/s
Channel(s) : 6 channels
Channel positions : Front: L C R, Side: L R, LFE
Sampling rate : 48.0 kHz
Frame rate : 93.750 FPS (512 spf)
Bit depth : 24 bits
Compression mode : Lossy
Stream size : 1.12 GiB (12%)
Language : French
Default : No
Forced : No

Text #1
ID : 4
Format : UTF-8
Codec ID : S_TEXT/UTF8
Codec ID/Info : UTF-8 Plain Text
Duration : 1 h 41 min
Bit rate : 39 b/s
Count of elements : 1017
Stream size : 29.4 KiB (0%)
Title : Forced
Language : English
Default : No
Forced : No

Text #2
ID : 5
Format : UTF-8
Codec ID : S_TEXT/UTF8
Codec ID/Info : UTF-8 Plain Text
Duration : 1 h 41 min
Bit rate : 39 b/s
Count of elements : 1017
Stream size : 29.4 KiB (0%)
Language : English
Default : No
Forced : No

Menu
00:00:00.000 : en:00:00:00.000
00:06:52.083 : en:00:06:52.083
00:16:59.375 : en:00:16:59.375
00:22:53.958 : en:00:22:53.958
00:33:48.000 : en:00:33:48.000
00:44:33.750 : en:00:44:33.750
00:53:10.458 : en:00:53:10.458
01:02:08.458 : en:01:02:08.458
01:08:15.417 : en:01:08:15.417
01:17:15.167 : en:01:17:15.167
01:27:37.792 : en:01:27:37.792
01:42:51.292 : en:01:42:51.292
   
Торрент: Зарегистрирован [09 фев 2017, 21:03] За каждые 2 ГБ. аплоада (сидирования) этого торрента начисляется бонус: 0.001 Скачать торрент
Скачать торрент
[ Размер 46.08 КБ / Просмотров 72 ]

Статус:
 
Приватный: Нет (DHT включён)
Размер: 9.03 ГБ (9 695 445 511 байт)
   
Аватара пользователя

Администратор
Администратор
 
Раздал: 2.33 ПБ
Скачал: 1.02 ПБ
Ратио: 2.281
Сообщения: 3722
Зарегистрирован: 07 май 2010, 17:29
Medals: 1
Лучший релиз за месяц (1)
  • Личное сообщение
  • ICQ

Вернуться в Фильмы 2016 (новинки)

Кто сейчас на конференции

Зарегистрированные пользователи: нет зарегистрированных пользователей

cron
Ресурс не предоставляет электронные версии произведений, а занимается лишь коллекционированием и каталогизацией ссылок, присылаемых и публикуемых на форуме нашими читателями. Если вы являетесь правообладателем какого-либо представленного материала и не желаете чтобы ссылка на него находилась в нашем каталоге, свяжитесь с нами и мы незамедлительно удалим её. Файлы для обмена на трекере предоставлены пользователями сайта, и администрация не несёт ответственности за их содержание. Просьба не заливать файлы, защищенные авторскими правами, а также файлы нелегального содержания!
cron