Дозорные / Lookouts (2016) WEB-DLRip-AVC | L2 скачать торрент

Киноновинки, новинки кинопроката, горячие новинки

Модератор: Модераторы видео

  • Статистика раздачи
Размер: 207.22 МБ   |  Зарегистрирован: 07 фев 2017, 21:29   |   .torrent скачан: 3241 раз
Сидеров: 1293  [ 0 байт/сек ]     Личеров: 99  [ 0 байт/сек ]  
Список файлов : Кто скачал : Раздают : Скачивают : Кто благодарил : История : Не раздающие : Запрашивали сидеров : Внешние трекеры 
  

Дозорные / Lookouts (2016) WEB-DLRip-AVC | L2

Сообщение Админ » 07 фев 2017, 21:29

Дозорные / Lookouts

Страна: США
Производство: RedGate Films
Год выпуска: 2016
Жанр: короткометражка, фэнтези, драма, приключения
Продолжительность: 00:11:58

Режиссер: Дэвид Буске / David Bousquet
Автор сценария: Дэвид Буске / David Bousquet

В ролях: Келтон Рони, Крис Кливлэнд, Стефани Эстес, Джек Эстес, Чарли Ибсен, Джастин Камэра

Описание: В финальном испытании юные разведчики из отряда дозорных оказываются в засаде, устроенной существом, на которого они вели охоту. После жестокой битвы остается единственный выживший мальчик Пен, которому приходится бежать в таинственный лес, являющийся местом обитания различных диких существ. Самым ужасающим из них является Василиск — крылатый титан, обладающий силой, которая может превратить любую добычу в камень. Именно это существо и искал отряд дозорных, а теперь оно охотится на Пена...



Перевод: Любительский (двухголосый, закадровый) | DeeAFilm Studio
Субтитры: английские


Качество: WEB-DLRip-AVC
Формат: МКV
Видео кодек: AVC
Аудио кодек: AAC
Видео: 1122x464 (2.40:1), 24.000 fps, MPEG-4 AVC ~2 015 kbps avg
Аудио №1: 48.0 kHz, Advanced Audio Codec LC, 2/0 (L,R) ch, ~144 kbps | RUS
Аудио №2: 48.0 kHz, Advanced Audio Codec LC, 2/0 (L,R) ch, ~256 kbps | ENG
Формат субтитров: UTF-8 Plain Text

Дата премьеры (мир): 1 сентября 2016



General
Уникальный идентификатор : 193102790206915530555744175227309685584 (0x91463E9E221F2EA9AFDABAD69A7C7B50)
Полное имя : Lookouts.2016.WEB-DLRip-AVC.mkv
Формат : Matroska
Версия формата : Version 4 / Version 2
Размер файла : 207 Мбайт
Продолжительность : 11 м.
Общий поток : 2419 Кбит/сек
Название фильма : Lookouts.2016.WEB-DLRip-AVC -Azureus-
Дата кодирования : UTC 2017-02-02 22:59:32
Программа кодирования : mkvmerge v9.4.0 ('Knurl') 64bit
Библиотека кодирования : libebml v1.3.4 + libmatroska v1.4.5

Видео
Идентификатор : 1
Формат : AVC
Формат/Информация : Advanced Video Codec
Профиль формата : [email protected]
Параметр CABAC формата : Да
Параметр ReFrames формата : 9 кадров
Идентификатор кодека : V_MPEG4/ISO/AVC
Продолжительность : 11 м.
Битрейт : 2015 Кбит/сек
Ширина : 1122 пикселя
Высота : 464 пикселя
Соотношение сторон : 2,40:1
Режим частоты кадров : Постоянный
Частота кадров : 24,000 кадра/сек
Цветовое пространство : YUV
Субдискретизация насыщенности : 4:2:0
Битовая глубина : 8 бит
Тип развёртки : Прогрессивная
Бит/(Пиксели*Кадры) : 0.161
Размер потока : 173 Мбайт (83%)
Библиотека кодирования : x264 core 148 r2744kMod b97ae06
Настройки программы : cabac=1 / ref=9 / deblock=1:-2:-1 / analyse=0x3:0x133 / me=umh / subme=11 / psy=1 / fade_compensate=0.00 / psy_rd=0.60:0.00 / mixed_ref=1 / me_range=32 / chroma_me=1 / trellis=2 / 8x8dct=1 / cqm=0 / deadzone=21,11 / fast_pskip=0 / chroma_qp_offset=-2 / threads=6 / lookahead_threads=1 / sliced_threads=0 / nr=0 / decimate=1 / interlaced=0 / bluray_compat=0 / constrained_intra=0 / bframes=16 / b_pyramid=2 / b_adapt=2 / b_bias=0 / direct=3 / weightb=1 / open_gop=0 / weightp=2 / keyint=250 / keyint_min=24 / scenecut=40 / intra_refresh=0 / rc_lookahead=70 / rc=crf / mbtree=0 / crf=18.0000 / qcomp=0.60 / qpmin=0 / qpmax=69 / qpstep=4 / vbv_maxrate=50000 / vbv_bufsize=62500 / crf_max=0.0 / nal_hrd=none / filler=0 / ip_ratio=1.40 / pb_ratio=1.30 / aq=3:1.00
Default : Да
Forced : Нет
Цветовой диапазон : Limited
Основные цвета : BT.709
Характеристики трансфера : BT.709
Коэффициенты матрицы : BT.709

Аудио #1
Идентификатор : 2
Формат : AAC
Формат/Информация : Advanced Audio Codec
Профиль формата : LC
Идентификатор кодека : A_AAC
Продолжительность : 11 м.
Битрейт : 144 Кбит/сек
Каналы : 2 канала
Расположение каналов : Front: L R
Частота : 48,0 КГц
Частота кадров : 46,875 кадров/сек (1024 spf)
Метод сжатия : С потерями
Задержка видео : 9 мс.
Размер потока : 12,4 Мбайт (6%)
Заголовок : DVO - DeeAFilm Studio
Язык : Russian
Default : Да
Forced : Нет

Аудио #2
Идентификатор : 3
Формат : AAC
Формат/Информация : Advanced Audio Codec
Профиль формата : LC
Идентификатор кодека : A_AAC
Продолжительность : 11 м.
Битрейт : 256 Кбит/сек
Каналы : 2 канала
Расположение каналов : Front: L R
Частота : 48,0 КГц
Частота кадров : 46,875 кадров/сек (1024 spf)
Метод сжатия : С потерями
Размер потока : 21,9 Мбайт (11%)
Заголовок : ENG
Язык : English
Default : Нет
Forced : Нет

Текст
Идентификатор : 4
Формат : UTF-8
Идентификатор кодека : S_TEXT/UTF8
Идентификатор кодека/Информация : UTF-8 Plain Text
Продолжительность : 9 м. 46 с.
Битрейт : 40 бит/сек
Count of elements : 112
Размер потока : 2,89 Кбайт (0%)
Заголовок : Eng Sub
Язык : English
Default : Нет
Forced : Нет
   
Торрент: Зарегистрирован [07 фев 2017, 21:29] Скачать торрент
Скачать торрент
[ Размер 17.12 КБ / Просмотров 56 ]

Статус:
 
Приватный: Нет (DHT включён)
Размер: 207.22 МБ (217 284 108 байт)
   
Аватара пользователя

Администратор
Администратор
 
Раздал: 2.33 ПБ
Скачал: 1.02 ПБ
Ратио: 2.281
Сообщения: 3722
Зарегистрирован: 07 май 2010, 17:29
Medals: 1
Лучший релиз за месяц (1)
  • Личное сообщение
  • ICQ

  • Похожие торренты
    Ответы
    Просмотры
    Последнее сообщение

Вернуться в Фильмы 2016 (новинки)

Кто сейчас на конференции

Зарегистрированные пользователи: нет зарегистрированных пользователей

cron
Ресурс не предоставляет электронные версии произведений, а занимается лишь коллекционированием и каталогизацией ссылок, присылаемых и публикуемых на форуме нашими читателями. Если вы являетесь правообладателем какого-либо представленного материала и не желаете чтобы ссылка на него находилась в нашем каталоге, свяжитесь с нами и мы незамедлительно удалим её. Файлы для обмена на трекере предоставлены пользователями сайта, и администрация не несёт ответственности за их содержание. Просьба не заливать файлы, защищенные авторскими правами, а также файлы нелегального содержания!
cron