Это всего лишь конец света / Juste la fin du monde (2016) BDRip 720p от New-Team | D скачать торрент

Киноновинки, новинки кинопроката, горячие новинки

Модератор: Модераторы видео

  • Статистика раздачи
Размер: 7.34 ГБ   |  Зарегистрирован: 07 фев 2017, 15:00   |   .torrent скачан: 317 раз
Сидеров: 232  [ 0 байт/сек ]     Личеров: 895  [ 0 байт/сек ]  
Список файлов : Кто скачал : Раздают : Скачивают : Кто благодарил : История : Не раздающие : Запрашивали сидеров : Внешние трекеры 
  

Это всего лишь конец света / Juste la fin du monde (2016) BDRip 720p от New-Team | D

Сообщение Админ » 07 фев 2017, 15:00

Информация о фильме
Название: Это всего лишь конец света
Оригинальное название: Juste la fin du monde
Страна: Канада, Франция
Студия: MK2 Productions
Жанр: драма
Год выпуска: 2016
Продолжительность: 01:38:48

Перевод: Профессиональный (дублированный) line
Cубтитры: французские
Оригинальная аудиодорожка: французский

Режиссер: Ксавье Долан / Xavier Dolan

В ролях: Натали Бай, Венсан Кассель, Марион Котийяр, Леа Сейду, Гаспар Ульель, Антуан Дерошер, Уилльям Бойс Бланшетт, Саша Самар, Артур Куийяр, Эмиль Рондо

Описание: Успешный писатель Луи после 12 лет разлуки возвращается в родной дом, чтобы сообщить семье новость о своей болезни. Однако, воплотить этот план в жизнь не просто, ведь у эксцентричной родни собственные планы.



Исходник: Juste la fin du monde 2016 1080p FRA Blu-ray AVC DTS-HD MA 5.1
Тип релиза: BDRip 720p / TONIK
Контейнер: MKV

Видео: MPEG-4 AVC, 8717 Кбит/с, 1280x690, 23,976 fps
Аудио: Rus, AC3, 192 kb/s (2 ch), 48 kHz
Аудио 2: Fre, DTS, 1510 kb/s (6 ch), 48 kHz
Формат субтитров: softsub (SRT)

Раздача от:

x264 [info]: frame I:827 Avg QP:12.65 size:139701
x264 [info]: frame P:24779 Avg QP:14.51 size: 83375
x264 [info]: frame B:116524 Avg QP:16.51 size: 38040
x264 [info]: consecutive B-frames: 1.0% 0.8% 3.3% 7.4% 14.2% 45.1% 10.1% 3.2% 6.9% 2.8% 3.5% 1.9%

Format : Matroska
Format version : Version 4 / Version 2
File size : 7.34 GiB
Duration : 1h 38mn
Overall bit rate : 10.6 Mbps
Movie name : Это всего лишь конец света. (Tonik)
Encoded date : UTC 2017-02-07 04:15:40
Writing application : mkvmerge v7.1.0 ('Good Love') 64bit built on Jul 27 2014 13:06:55
Writing library : libebml v1.3.0 + libmatroska v1.4.1
DURATION : 01:38:48.032000000
NUMBER_OF_FRAMES : 185251
NUMBER_OF_BYTES : 142272768
_STATISTICS_WRITING_APP : mkvmerge v7.1.0 ('Good Love') 64bit built on Jul 27 2014 13:06:55
_STATISTICS_WRITING_DATE_UTC : 2017-02-07 04:15:40
_STATISTICS_TAGS : BPS DURATION NUMBER_OF_FRAMES NUMBER_OF_BYTES

Video
ID : 1
Format : AVC
Format/Info : Advanced Video Codec
Format profile : [email protected]
Format settings, CABAC : Yes
Format settings, ReFrames : 9 frames
Codec ID : V_MPEG4/ISO/AVC
Duration : 1h 38mn
Bit rate : 8 717 Kbps
Width : 1 280 pixels
Height : 690 pixels
Display aspect ratio : 1.85:1
Frame rate mode : Constant
Frame rate : 23.976 fps
Color space : YUV
Chroma subsampling : 4:2:0
Bit depth : 8 bits
Scan type : Progressive
Bits/(Pixel*Frame) : 0.412
Stream size : 6.02 GiB (82%)
Title : Tonik
Writing library : x264 core 148 r2744 b97ae06
Encoding settings : cabac=1 / ref=9 / deblock=1:-3:-3 / analyse=0x3:0x133 / me=umh / subme=11 / psy=1 / psy_rd=1.00:0.00 / mixed_ref=1 / me_range=32 / chroma_me=1 / trellis=2 / 8x8dct=1 / cqm=0 / deadzone=21,11 / fast_pskip=0 / chroma_qp_offset=-2 / threads=12 / lookahead_threads=3 / sliced_threads=0 / nr=0 / decimate=0 / interlaced=0 / bluray_compat=0 / constrained_intra=0 / bframes=11 / b_pyramid=2 / b_adapt=2 / b_bias=0 / direct=1 / weightb=1 / open_gop=0 / weightp=2 / keyint=250 / keyint_min=23 / scenecut=40 / intra_refresh=0 / rc=crf / mbtree=0 / crf=16.0 / qcomp=0.60 / qpmin=0 / qpmax=69 / qpstep=4 / ip_ratio=1.40 / pb_ratio=1.30 / aq=1:0.80
Language : English
Default : Yes
Forced : No
DURATION : 01:38:48.015000000
NUMBER_OF_FRAMES : 142130
NUMBER_OF_BYTES : 6613998962
_STATISTICS_WRITING_APP : mkvmerge v7.1.0 ('Good Love') 64bit built on Jul 27 2014 13:06:55
_STATISTICS_WRITING_DATE_UTC : 2017-02-07 04:15:40
_STATISTICS_TAGS : BPS DURATION NUMBER_OF_FRAMES NUMBER_OF_BYTES

Audio #1
ID : 2
Format : AC-3
Format/Info : Audio Coding 3
Mode extension : CM (complete main)
Format settings, Endianness : Big
Codec ID : A_AC3
Duration : 1h 38mn
Bit rate mode : Constant
Bit rate : 192 Kbps
Channel(s) : 2 channels
Channel positions : Front: L R
Sampling rate : 48.0 KHz
Bit depth : 16 bits
Compression mode : Lossy
Stream size : 136 MiB (2%)
Title : line
Language : Russian
Default : Yes
Forced : No

Audio #2
ID : 3
Format : DTS
Format/Info : Digital Theater Systems
Mode : 16
Format settings, Endianness : Big
Codec ID : A_DTS
Duration : 1h 38mn
Bit rate mode : Constant
Bit rate : 1 509 Kbps
Channel(s) : 6 channels
Channel positions : Front: L C R, Side: L R, LFE
Sampling rate : 48.0 KHz
Bit depth : 24 bits
Compression mode : Lossy
Stream size : 1.04 GiB (14%)
Language : French
Default : No
Forced : No

Text
ID : 4
Format : UTF-8
Codec ID : S_TEXT/UTF8
Codec ID/Info : UTF-8 Plain Text
Language : French
Default : No
Forced : No

Menu
00:00:00.000 : :Chapter 01
00:05:23.406 : :Chapter 02
00:09:50.256 : :Chapter 03
00:18:38.867 : :Chapter 04
00:27:23.308 : :Chapter 05
00:34:02.373 : :Chapter 06
00:36:53.628 : :Chapter 07
00:42:29.129 : :Chapter 08
00:54:03.281 : :Chapter 09
01:00:43.681 : :Chapter 10
01:07:22.371 : :Chapter 11
01:16:31.295 : :Chapter 12
01:19:39.274 : :Chapter 13
01:25:13.775 : :Chapter 14
01:31:03.332 : :Chapter 15
01:32:58.781 : :Chapter 16




   
Торрент: Зарегистрирован [07 фев 2017, 15:00] За каждые 2 ГБ. аплоада (сидирования) этого торрента начисляется бонус: 0.001 Скачать торрент
Скачать торрент
[ Размер 19.34 КБ / Просмотров 42 ]

Статус:
 
Приватный: Нет (DHT включён)
Размер: 7.34 ГБ (7 876 534 360 байт)
   
Аватара пользователя

Администратор
Администратор
 
Раздал: 2.33 ПБ
Скачал: 1.02 ПБ
Ратио: 2.281
Сообщения: 3722
Зарегистрирован: 07 май 2010, 17:29
Medals: 1
Лучший релиз за месяц (1)
  • Личное сообщение
  • ICQ

Вернуться в Фильмы 2016 (новинки)

Кто сейчас на конференции

Зарегистрированные пользователи: нет зарегистрированных пользователей

Ресурс не предоставляет электронные версии произведений, а занимается лишь коллекционированием и каталогизацией ссылок, присылаемых и публикуемых на форуме нашими читателями. Если вы являетесь правообладателем какого-либо представленного материала и не желаете чтобы ссылка на него находилась в нашем каталоге, свяжитесь с нами и мы незамедлительно удалим её. Файлы для обмена на трекере предоставлены пользователями сайта, и администрация не несёт ответственности за их содержание. Просьба не заливать файлы, защищенные авторскими правами, а также файлы нелегального содержания!
cron