Девушка в поезде / The Girl on the Train (2016) BDRip 1080p от New-Team & qqss44 | Лицензия скачать торрент

Киноновинки, новинки кинопроката, горячие новинки

Модератор: Модераторы видео

  • Статистика раздачи
Размер: 7.74 ГБ   |  Зарегистрирован: 26 янв 2017, 03:17   |   .torrent скачан: 511 раз
Сидеров: 340  [ 0 байт/сек ]     Личеров: 56  [ 0 байт/сек ]  
Список файлов : Кто скачал : Раздают : Скачивают : Кто благодарил : История : Не раздающие : Запрашивали сидеров : Внешние трекеры 
  

Девушка в поезде / The Girl on the Train (2016) BDRip 1080p от New-Team & qqss44 | Лицензия

Сообщение Админ » 26 янв 2017, 03:17



Анонсы 1080p от qqss44


✘ Девушка в поезде ✘




Информация о фильме
✦ Год выхода: 2016
✦ Название: Девушка в поезде
✦ Жанр: Триллер, детектив
✦ Оригинальное название: The Girl on the Train
✦ Режиссер: Тейт Тейлор
✦ В ролях: Эмили Блант, Хейли Беннетт, Ребекка Фергюсон (II), Джастин Теру, Люк Эванс, Эдгар Рамирес, Лора Припон, Эллисон Джэнни, Даррен Голдштейн, Лиза Кудроу, Клета Элейн Эллингтон, Лана Янг, Рэйчел Кристофер, Грегори Морли, Джон Норрис, Фрэнк Анелло, Сергей Ашуров, Сидни Байц, Марко Кака


Описание фильма
Каждый день поезд проносит Рэйчел мимо очаровательного коттеджа, где живет идеальная на первый взгляд пара. Но однажды идиллия разрушится — прекрасная незнакомка бесследно исчезнет. Рэйчел окажется втянута в весьма запутанную историю, ведь только она видела из окна то, что было скрыто ото всех.



✦ Выпущено: США, Amblin Entertainment, DreamWorks SKG, Marc Platt Productions
✦ Продолжительность: 01:52:05
✦ Перевод: дублированный -
|| Лицензия ||



Информация о файле
✦ Формат:| MKV | x264 |
✦ Качество: BDRip 1080p
✦ Видео: X264/MPEG4-AVC | 1920x1038 (1,85:1) | ~9255 kbps | 23,976 fps
✦ Аудио Rus: AC3 | 48 KHz | 5.1 (Front: L С R Side: L R) + LFE | ~640 kbps
✦ Субтитры: || Русские (форсированные) ||


x264 [info]: frame I:1004 Avg QP:15.69 size:216429
x264 [info]: frame P:35670 Avg QP:18.34 size: 87574
x264 [info]: frame B:124564 Avg QP:20.35 size: 35585

Общее
Уникальный идентификатор : 244709711449287518470648062391796721000 (0xB8196047D8184C9A95819A49BFAD6568)
Полное имя : X:ATorrentThe.Girl.on.the.Train.2016.BDRip.1080p.(qqss44).mkv
Формат : Matroska
Версия формата : Version 2
Размер файла : 7,74 Гбайт
Продолжительность : 1 ч. 52 м.
Общий поток : 9889 Кбит/сек
Название фильма : The.Girl.on.the.Train.2016.BDRip.1080p.(qqss44)
Дата кодирования : UTC 2017-01-25 21:14:58
Программа кодирования : mkvmerge v5.8.0 ('No Sleep / Pillow') built on Sep 2 2012 15:37:04
Библиотека кодирования : libebml v1.2.3 + libmatroska v1.3.0

Видео
Идентификатор : 1
Формат : AVC
Формат/Информация : Advanced Video Codec
Профиль формата : [email protected]
Параметр CABAC формата : Да
Параметр ReFrames формата : 4 кадра
Идентификатор кодека : V_MPEG4/ISO/AVC
Продолжительность : 1 ч. 52 м.
Битрейт : 9255 Кбит/сек
Ширина : 1920 пикселей
Высота : 1038 пикселей
Соотношение сторон : 1,85:1
Режим частоты кадров : Постоянный
Частота кадров : 23,976 (24000/1001) кадра/сек
Цветовое пространство : YUV
Субдискретизация насыщенности : 4:2:0
Битовая глубина : 8 бит
Тип развёртки : Прогрессивная
Бит/(Пиксели*Кадры) : 0.194
Размер потока : 7,09 Гбайт (92%)
Заголовок : The.Girl.on.the.Train.2016.BDRip.1080p.(qqss44)
Библиотека кодирования : x264 core 148 r2744kMod b97ae06
Настройки программы : cabac=1 / ref=4 / deblock=1:-3:-3 / analyse=0x3:0x133 / me=umh / subme=11 / psy=1 / fade_compensate=0.00 / psy_rd=1.00:0.00 / mixed_ref=1 / me_range=32 / chroma_me=1 / trellis=2 / 8x8dct=1 / cqm=0 / deadzone=21,11 / fast_pskip=0 / chroma_qp_offset=-2 / threads=12 / lookahead_threads=2 / sliced_threads=0 / nr=0 / decimate=0 / interlaced=0 / bluray_compat=0 / constrained_intra=0 / bframes=9 / b_pyramid=2 / b_adapt=2 / b_bias=0 / direct=3 / weightb=1 / open_gop=0 / weightp=2 / keyint=240 / keyint_min=23 / scenecut=40 / intra_refresh=0 / rc=2pass / mbtree=0 / bitrate=9255 / ratetol=1.0 / qcomp=0.70 / qpmin=0 / qpmax=69 / qpstep=4 / cplxblur=20.0 / qblur=0.5 / ip_ratio=1.40 / pb_ratio=1.30 / aq=3:0.80
Язык : English
Default : Да
Forced : Нет

Аудио
Идентификатор : 2
Формат : AC-3
Формат/Информация : Audio Coding 3
Расширение режима : CM (complete main)
Параметр Endianness формата : Big
Идентификатор кодека : A_AC3
Продолжительность : 1 ч. 52 м.
Вид битрейта : Постоянный
Битрейт : 640 Кбит/сек
Каналы : 6 каналов
Расположение каналов : Front: L C R, Side: L R, LFE
Частота : 48,0 КГц
Частота кадров : 31,250 кадров/сек (1536 spf)
Метод сжатия : С потерями
Размер потока : 513 Мбайт (6%)
Заголовок : DUB | DD5.1 @ 640 kbps
Язык : Russian
Default : Да
Forced : Нет

Текст
Идентификатор : 3
Формат : UTF-8
Идентификатор кодека : S_TEXT/UTF8
Идентификатор кодека/Информация : UTF-8 Plain Text
Заголовок : FORCED
Язык : Russian
Default : Да
Forced : Нет

Меню
00:00:00.000 : en:00:00:00.000
00:06:01.778 : en:00:06:01.778
00:09:29.902 : en:00:09:29.902
00:18:15.969 : en:00:18:15.969
00:25:26.148 : en:00:25:26.148
00:32:04.505 : en:00:32:04.505
00:37:04.972 : en:00:37:04.972
00:44:52.313 : en:00:44:52.313
00:49:22.458 : en:00:49:22.458
00:55:07.012 : en:00:55:07.012
00:59:36.030 : en:00:59:36.030
01:03:34.811 : en:01:03:34.811
01:09:25.786 : en:01:09:25.786
01:14:36.430 : en:01:14:36.430
01:19:08.702 : en:01:19:08.702
01:23:44.728 : en:01:23:44.728
01:28:07.489 : en:01:28:07.489
01:33:49.457 : en:01:33:49.457
01:38:54.552 : en:01:38:54.552
01:45:55.181 : en:01:45:55.181

Релиз от:
   
Торрент: Зарегистрирован [26 янв 2017, 03:17] За каждые 2 ГБ. аплоада (сидирования) этого торрента начисляется бонус: 0.001 Скачать торрент
Скачать торрент
[ Размер 39.69 КБ / Просмотров 43 ]

Статус:
 
Приватный: Нет (DHT включён)
Размер: 7.74 ГБ (8 313 334 290 байт)
   
Аватара пользователя

Администратор
Администратор
 
Раздал: 2.33 ПБ
Скачал: 1.02 ПБ
Ратио: 2.281
Сообщения: 3722
Зарегистрирован: 07 май 2010, 17:29
Medals: 1
Лучший релиз за месяц (1)
  • Личное сообщение
  • ICQ

Вернуться в Фильмы 2016 (новинки)

Кто сейчас на конференции

Зарегистрированные пользователи: нет зарегистрированных пользователей

Ресурс не предоставляет электронные версии произведений, а занимается лишь коллекционированием и каталогизацией ссылок, присылаемых и публикуемых на форуме нашими читателями. Если вы являетесь правообладателем какого-либо представленного материала и не желаете чтобы ссылка на него находилась в нашем каталоге, свяжитесь с нами и мы незамедлительно удалим её. Файлы для обмена на трекере предоставлены пользователями сайта, и администрация не несёт ответственности за их содержание. Просьба не заливать файлы, защищенные авторскими правами, а также файлы нелегального содержания!
cron