Терраформирование / Terra Formars (2016) BDRip 1080p | L2 скачать торрент

Киноновинки, новинки кинопроката, горячие новинки

Модератор: Модераторы видео

  • Статистика раздачи
Размер: 10.47 ГБ   |  Зарегистрирован: 22 янв 2017, 05:08   |   .torrent скачан: 2090 раз
Сидеров: 728  [ 0 байт/сек ]     Личеров: 118  [ 0 байт/сек ]  
Список файлов : Кто скачал : Раздают : Скачивают : Кто благодарил : История : Не раздающие : Запрашивали сидеров : Внешние трекеры 
  

Терраформирование / Terra Formars (2016) BDRip 1080p | L2

Сообщение Админ » 22 янв 2017, 05:08

Название: Терраформирование
Оригинальное название: Terra Formars
Год выхода: 2016

Страна: Япония
Продолжительность: 01:48:55
Жанр: Ужасы, фантастика, боевик

Режиссер: Такаси Миике
В ролях: Ринко Кикути, Рила Фукусима, Кейн Косуги, Такаюки Ямада, Эми Такэи, Сюн Огури, Ямасита Томохиса, Марико Синода, Масая Като, Хидэаки Ито, ...

Перевод: Любительский (двухголосый, закадровый) Green Tea

О фильме: С давних пор человечество изучает Марс, пытаясь подчинить себе этот безжизненный и суровый мир. Ученые уже не один десяток лет бьются над планами освоения этой планеты ради блага человечества, запуская на неё различные формы жизни и наблюдая за ними. Теперь, спустя сотни лет, когда Земля становится перенаселенной, находится способ превратить красную планету в пригодное для жизни место. Запускается проект терраформирования, для завершения которого на Марс отправляется группа смельчаков. Но при приземлении их встречает отнюдь не безмолвная пустыня, а гигантские монстры…

Кодек: x264
Качество: BDRip 1080p
Видео: 1920x804, 11600 kbps, 23,976 fps
Аудио #1: AC-3, 6 ch, 640 kbps (Rus) - DVOL Green Tea
Аудио #2: DTS, 6 ch, 1509 kbps (Eng)
Субтитры: Английские

Общее
Уникальный идентификатор : 180558568320551599681260266561246552322 (0x87D650BA698391D28213CB54B2676102)
Полное имя : Терраформирование (Terra Formars) 2016 BDRip 1080p.mkv
Формат : Matroska
Версия формата : Version 2
Размер файла : 10,5 Гбайт
Продолжительность : 1 ч. 48 м.
Общий поток : 13,8 Мбит/сек
Дата кодирования : UTC 2017-01-21 07:41:25
Программа кодирования : mkvmerge v4.0.0 ('The Stars were mine') сборка от Jun 6 2010 16:18:42
Библиотека кодирования : libebml v1.0.0 + libmatroska v1.0.0

Видео
Идентификатор : 1
Формат : AVC
Формат/Информация : Advanced Video Codec
Профиль формата : [email protected]
Параметр CABAC формата : Да
Параметр ReFrames формата : 5 кадров
Идентификатор кодека : V_MPEG4/ISO/AVC
Продолжительность : 1 ч. 48 м.
Битрейт : 11,6 Мбит/сек
Ширина : 1920 пикселей
Высота : 804 пикселя
Соотношение сторон : 2,40:1
Режим частоты кадров : Постоянный
Частота кадров : 23,976 кадра/сек
Цветовое пространство : YUV
Субдискретизация насыщенности : 4:2:0
Битовая глубина : 8 бит
Тип развёртки : Прогрессивная
Бит/(Пиксели*Кадры) : 0.314
Размер потока : 8,62 Гбайт (82%)
Библиотека кодирования : x264 core 129 r2245+704+36 8e61944 tMod+MixAQ [[email protected]:2:0 X86_64]
Настройки программы : cabac=1 / ref=5 / deblock=1:-3:-3 / analyse=0x3:0x133 / me=umh / subme=11 / psy=1 / fade_compensate=0.00 / psy_rd=1.05:0.10 / mixed_ref=1 / me_range=64 / chroma_me=1 / trellis=2 / 8x8dct=1 / cqm=0 / deadzone=21,11 / fast_pskip=0 / chroma_qp_offset=-3 / threads=18 / lookahead_threads=3 / sliced_threads=0 / nr=0 / decimate=0 / interlaced=0 / bluray_compat=0 / constrained_intra=0 / fgo=0 / bframes=10 / b_pyramid=2 / b_adapt=2 / b_bias=0 / direct=3 / weightb=1 / open_gop=0 / weightp=2 / keyint=250 / keyint_min=23 / scenecut=40 / intra_refresh=0 / rc_lookahead=80 / rc=2pass / mbtree=1 / bitrate=11606 / ratetol=1.0 / qcomp=0.70 / qpmin=0 / qpmax=69 / qpstep=4 / cplxblur=20.0 / qblur=0.5 / ip_ratio=1.40 / aq=1 / aq-strength=0.85 / aq-sensitivity=10.00 / aq-ifactor=1.00 / aq-pfactor=1.00 / aq-bfactor=1.00 / aq2=0
Язык : Japanese
Default : Нет
Forced : Нет

Аудио #1
Идентификатор : 2
Формат : AC-3
Формат/Информация : Audio Coding 3
Расширение режима : CM (complete main)
Параметр Endianness формата : Big
Идентификатор кодека : A_AC3
Продолжительность : 1 ч. 48 м.
Вид битрейта : Постоянный
Битрейт : 640 Кбит/сек
Каналы : 6 каналов
Расположение каналов : Front: L C R, Side: L R, LFE
Частота : 48,0 КГц
Битовая глубина : 16 бит
Метод сжатия : С потерями
Размер потока : 499 Мбайт (5%)
Заголовок : DVOL Green Tea (Антонина Лазаревская и Антон Рубаков)
Язык : Russian
Default : Нет
Forced : Нет

Аудио #2
Идентификатор : 3
Формат : DTS
Формат/Информация : Digital Theater Systems
Режим : 16
Параметр Endianness формата : Big
Идентификатор кодека : A_DTS
Продолжительность : 1 ч. 48 м.
Вид битрейта : Постоянный
Битрейт : 1509 Кбит/сек
Каналы : 6 каналов
Расположение каналов : Front: L C R, Side: L R, LFE
Частота : 48,0 КГц
Битовая глубина : 24 бит
Метод сжатия : С потерями
Задержка видео : 11 мс.
Размер потока : 1,15 Гбайт (11%)
Язык : Japanese
Default : Нет
Forced : Нет

Текст
Идентификатор : 4
Формат : UTF-8
Идентификатор кодека : S_TEXT/UTF8
Идентификатор кодека/Информация : UTF-8 Plain Text
Язык : English
Default : Нет
Forced : Нет


   
Торрент: Зарегистрирован [22 янв 2017, 05:08] За каждые 2 ГБ. аплоада (сидирования) этого торрента начисляется бонус: 0.001 Скачать торрент
Скачать торрент
[ Размер 53.25 КБ / Просмотров 52 ]

Статус:
 
Приватный: Нет (DHT включён)
Размер: 10.47 ГБ (11 237 599 413 байт)
   
Аватара пользователя

Администратор
Администратор
 
Раздал: 2.33 ПБ
Скачал: 1.02 ПБ
Ратио: 2.281
Сообщения: 3722
Зарегистрирован: 07 май 2010, 17:29
Medals: 1
Лучший релиз за месяц (1)
  • Личное сообщение
  • ICQ

Вернуться в Фильмы 2016 (новинки)

Кто сейчас на конференции

Зарегистрированные пользователи: нет зарегистрированных пользователей

Ресурс не предоставляет электронные версии произведений, а занимается лишь коллекционированием и каталогизацией ссылок, присылаемых и публикуемых на форуме нашими читателями. Если вы являетесь правообладателем какого-либо представленного материала и не желаете чтобы ссылка на него находилась в нашем каталоге, свяжитесь с нами и мы незамедлительно удалим её. Файлы для обмена на трекере предоставлены пользователями сайта, и администрация не несёт ответственности за их содержание. Просьба не заливать файлы, защищенные авторскими правами, а также файлы нелегального содержания!
cron