Абсолютная власть / Imperium (2016) BDRip 720p от ExKinoRay | iTunes скачать торрент

Киноновинки, новинки кинопроката, горячие новинки

Модератор: Модераторы видео

  • Статистика раздачи
Размер: 6.21 ГБ   |  Зарегистрирован: 08 янв 2017, 03:45   |   .torrent скачан: 844 раз
Сидеров: 205  [ 0 байт/сек ]     Личеров: 16  [ 0 байт/сек ]  
Список файлов : Кто скачал : Раздают : Скачивают : Кто благодарил : История : Не раздающие : Запрашивали сидеров : Внешние трекеры 
  

Абсолютная власть / Imperium (2016) BDRip 720p от ExKinoRay | iTunes

Сообщение Админ » 08 янв 2017, 03:45

Информация о фильме
Название: Абсолютная власть
Оригинальное название: Imperium
Год выхода: 2016
Жанр: Триллер, драма, криминал
Режиссер: Даниэль Рагуссис
В ролях: Дэниэл Рэдклифф, Тони Коллетт, Трэйси Леттс, Сэм Трэммелл, Нестор Карбонелл, Крис Салливан, Сет Нумрик, Павел Жайда, Девин Друид, Берн Горман

О фильме:
Агент ФБР под прикрытием внедряется в банду нео-нацистов для предотвращения теракта. Каково это — жить каждый день в потоке насилия и жестокости, отстаивать свое право кулаками, выбрить череп и закрыть душу? Что такое нео-нацизм -это не только хулиганы и скинхеды, но и благополучные господа в дорогих костюмах, готовые уничтожить город ради идеи.

Страна: США
Студия: Atomic Features
Продолжительность: 01:48:36
Перевод: Профессиональный многоголосый (закадровый) | iTunes

Файл
Качество: BDRip 720p
Видео: MPEG-4 AVC, 1280x536, 7350 Кbit/s, 23.976 fps
Звук:
Аудио #01: 48 kHz, AC3, 5.1, 384 Kbps | Профессиональный многоголосый (закадровый)|
Аудио #02: 48 kHz, AC3, 5.1, 448 kbps | Оригинал |
Субтитры: Английские

General
Unique ID : 216856767577463870591906771320042397270 (0xA325181F97641DA78860F1BAF23F9E56)
Complete name : G:VideoImperium.2016.BDRip.720p.ExKinoRay.mkv
Format : Matroska
Format version : Version 4 / Version 2
File size : 6.21 GiB
Duration : 1 h 48 min
Overall bit rate : 8 182 kb/s
Movie name : ***селезень***
Encoded date : UTC 2016-12-17 11:12:20
Writing application : mkvmerge v9.6.0 ('Slave To Your Mind') 64bit
Writing library : libebml v1.3.4 + libmatroska v1.4.5

Video
ID : 1
Format : AVC
Format/Info : Advanced Video Codec
Format profile : [email protected]
Format settings, CABAC : Yes
Format settings, ReFrames : 8 frames
Codec ID : V_MPEG4/ISO/AVC
Duration : 1 h 48 min
Bit rate : 7 350 kb/s
Width : 1 280 pixels
Height : 536 pixels
Display aspect ratio : 2.40:1
Frame rate mode : Constant
Frame rate : 23.976 (24000/1001) FPS
Color space : YUV
Chroma subsampling : 4:2:0
Bit depth : 8 bits
Scan type : Progressive
Bits/(Pixel*Frame) : 0.447
Stream size : 5.57 GiB (90%)
Title : Imperium.2016 ***селезень***
Writing library : x264 core 142 r2431+42 c69a006 tMod [[email protected] X86_64]
Encoding settings : cabac=1 / ref=8 / deblock=1:-3:-3 / analyse=0x3:0x133 / me=umh / subme=11 / psy=1 / fade_compensate=0.00 / psy_rd=1.05:1.05 / mixed_ref=1 / me_range=48 / chroma_me=1 / trellis=2 / 8x8dct=1 / cqm=0 / deadzone=21,11 / fast_pskip=0 / chroma_qp_offset=-4 / threads=16 / lookahead_threads=2 / sliced_threads=0 / nr=0 / decimate=0 / interlaced=0 / bluray_compat=0 / constrained_intra=0 / fgo=0 / bframes=8 / b_pyramid=2 / b_adapt=2 / b_bias=0 / direct=3 / weightb=1 / open_gop=0 / weightp=2 / keyint=240 / keyint_min=23 / scenecut=40 / intra_refresh=0 / rc_lookahead=150 / rc=2pass / mbtree=0 / bitrate=7350 / ratetol=1.0 / qcomp=0.80 / qpmin=0:0:0 / qpmax=69:69:69 / qpstep=4 / cplxblur=20.0 / qblur=0.5 / vbv_maxrate=300000 / vbv_bufsize=300000 / nal_hrd=none / filler=0 / ip_ratio=1.30 / pb_ratio=1.40 / aq=2:0.68 / aq-sensitivity=10.00 / aq-factor=1.00:1.00:1.00 / aq2=0 / aq3=0
Language : English
Default : Yes
Forced : No
Color range : Limited
Color primaries : BT.709
Transfer characteristics : BT.709
Matrix coefficients : BT.709

Audio #1
ID : 2
Format : AC-3
Format/Info : Audio Coding 3
Mode extension : CM (complete main)
Format settings, Endianness : Big
Codec ID : A_AC3
Duration : 1 h 48 min
Bit rate mode : Constant
Bit rate : 384 kb/s
Channel(s) : 6 channels
Channel positions : Front: L C R, Side: L R, LFE
Sampling rate : 48.0 kHz
Frame rate : 31.250 FPS (1536 spf)
Bit depth : 16 bits
Compression mode : Lossy
Stream size : 298 MiB (5%)
Title : iTunes
Language : Russian
Default : Yes
Forced : No

Audio #2
ID : 3
Format : AC-3
Format/Info : Audio Coding 3
Mode extension : CM (complete main)
Format settings, Endianness : Big
Codec ID : A_AC3
Duration : 1 h 48 min
Bit rate mode : Constant
Bit rate : 448 kb/s
Channel(s) : 6 channels
Channel positions : Front: L C R, Side: L R, LFE
Sampling rate : 48.0 kHz
Frame rate : 31.250 FPS (1536 spf)
Bit depth : 16 bits
Compression mode : Lossy
Stream size : 348 MiB (5%)
Title : Original
Language : English
Default : No
Forced : No

Text #1
ID : 4
Format : UTF-8
Codec ID : S_TEXT/UTF8
Codec ID/Info : UTF-8 Plain Text
Duration : 1 h 39 min
Bit rate : 85 b/s
Count of elements : 1558
Stream size : 62.5 KiB (0%)
Title : Full
Language : English
Default : No
Forced : No

Text #2
ID : 5
Format : UTF-8
Codec ID : S_TEXT/UTF8
Codec ID/Info : UTF-8 Plain Text
Duration : 1 h 39 min
Bit rate : 88 b/s
Count of elements : 1609
Stream size : 64.8 KiB (0%)
Title : SDH
Language : English
Default : No
Forced : No

Menu
00:00:00.000 : en:00:00:00.000
00:07:07.260 : en:00:07:07.260
00:14:49.680 : en:00:14:49.680
00:21:11.645 : en:00:21:11.645
00:27:08.836 : en:00:27:08.836
00:33:24.002 : en:00:33:24.002
00:39:43.256 : en:00:39:43.256
00:46:01.008 : en:00:46:01.008
00:51:49.565 : en:00:51:49.565
00:57:56.640 : en:00:57:56.640
01:05:00.271 : en:01:05:00.271
01:11:59.899 : en:01:11:59.899
01:19:28.222 : en:01:19:28.222
01:26:43.573 : en:01:26:43.573
01:30:29.799 : en:01:30:29.799
01:38:49.590 : en:01:38:49.590




Релиз от: Автор релиза:
   
Торрент: Зарегистрирован [08 янв 2017, 03:45] За каждые 2 ГБ. аплоада (сидирования) этого торрента начисляется бонус: 0.001 Скачать торрент
Скачать торрент
[ Размер 31.79 КБ / Просмотров 53 ]

Статус:
 
Приватный: Нет (DHT включён)
Размер: 6.21 ГБ (6 664 871 516 байт)
   
Аватара пользователя

Администратор
Администратор
 
Раздал: 2.33 ПБ
Скачал: 1.02 ПБ
Ратио: 2.281
Сообщения: 3722
Зарегистрирован: 07 май 2010, 17:29
Medals: 1
Лучший релиз за месяц (1)
  • Личное сообщение
  • ICQ

Вернуться в Фильмы 2016 (новинки)

Кто сейчас на конференции

Зарегистрированные пользователи: нет зарегистрированных пользователей

cron
Ресурс не предоставляет электронные версии произведений, а занимается лишь коллекционированием и каталогизацией ссылок, присылаемых и публикуемых на форуме нашими читателями. Если вы являетесь правообладателем какого-либо представленного материала и не желаете чтобы ссылка на него находилась в нашем каталоге, свяжитесь с нами и мы незамедлительно удалим её. Файлы для обмена на трекере предоставлены пользователями сайта, и администрация не несёт ответственности за их содержание. Просьба не заливать файлы, защищенные авторскими правами, а также файлы нелегального содержания!
cron