Шпионы по соседству / Keeping Up with the Joneses (2016) BDRip 720p от ExKinoRay | iTunes скачать торрент

Киноновинки, новинки кинопроката, горячие новинки

Модератор: Модераторы видео

  • Статистика раздачи
Размер: 6.25 ГБ   |  Зарегистрирован: 07 янв 2017, 00:30   |   .torrent скачан: 443 раз
Сидеров: 1029  [ 0 байт/сек ]     Личеров: 114  [ 0 байт/сек ]  
Список файлов : Кто скачал : Раздают : Скачивают : Кто благодарил : История : Не раздающие : Запрашивали сидеров : Внешние трекеры 
  

Шпионы по соседству / Keeping Up with the Joneses (2016) BDRip 720p от ExKinoRay | iTunes

Сообщение Админ » 07 янв 2017, 00:30

Информация о фильме
Название: Шпионы по соседству
Оригинальное название: Keeping Up with the Joneses
Год выхода: 2016
Жанр: боевик, Комедия
Режиссер: Грег Моттола
В ролях: Зак Галифианакис, Айла Фишер, Джон Хэмм, Галь Гадот, Пэттон Освальт, Минг Жао, Мэтт Уолш, Мэрибет Монро, Майкл Лью, Кевин Данн

О фильме:
Супружеская пара из пригорода оказывается втянутой в международный шпионский заговор, когда обнаруживает, что их, казалось бы, идеальные новые соседи являются правительственными агентами.


Страна: США
Студия: Fox 2000 Pictures, MacDonald/Parkes Productions
Продолжительность:
Перевод: Дублированный | iTunes

Файл
Качество: BDRip 720p
Видео: MPEG-4 AVC, 1280x534, 6600 Кbit/s, 23.976 fps
Звук:
Аудио #01: 48 kHz, AC3, 5.1, 384 Kbps | Дублированный |
Аудио #02: 48 kHz, DTS-ES, 5.1, 1510 kbps | Оригинал |
Субтитры: Русские (forced, full), английские

Общее
Уникальный идентификатор : 243881621316440634867817368814582391081 (0xB779E448EF6EE55FBD80ED86CB966129)
Полное имя : F:VideoKeeping.Up.with.the.Joneses.2016.BDRip.720p.ExKinoRay.mkv
Формат : Matroska
Версия формата : Version 4 / Version 2
Размер файла : 6,25 Гбайт
Продолжительность : 1 ч. 45 м.
Общий поток : 8496 Кбит/сек
Название фильма : Keeping.Up.with.the.Joneses.2016 ***селезень***
Дата кодирования : UTC 2017-01-05 20:21:57
Программа кодирования : mkvmerge v8.3.0 ('Over the Horizon') 64bit
Библиотека кодирования : libebml v1.3.1 + libmatroska v1.4.2

Видео
Идентификатор : 1
Формат : AVC
Формат/Информация : Advanced Video Codec
Профиль формата : [email protected]
Параметр CABAC формата : Да
Параметр ReFrames формата : 12 кадров
Идентификатор кодека : V_MPEG4/ISO/AVC
Продолжительность : 1 ч. 45 м.
Битрейт : 6600 Кбит/сек
Ширина : 1280 пикселей
Высота : 534 пикселя
Соотношение сторон : 2,40:1
Режим частоты кадров : Постоянный
Частота кадров : 23,976 (24000/1001) кадра/сек
Цветовое пространство : YUV
Субдискретизация насыщенности : 4:2:0
Битовая глубина : 8 бит
Тип развёртки : Прогрессивная
Бит/(Пиксели*Кадры) : 0.403
Размер потока : 4,86 Гбайт (78%)
Заголовок : Keeping.Up.with.the.Joneses.2016 ***селезень***
Библиотека кодирования : x264 core 148 r2744kMod b97ae06
Настройки программы : cabac=1 / ref=12 / deblock=1:-3:-3 / analyse=0x3:0x133 / me=umh / subme=11 / psy=1 / fade_compensate=0.00 / psy_rd=1.15:0.00 / mixed_ref=1 / me_range=48 / chroma_me=1 / trellis=2 / 8x8dct=1 / cqm=0 / deadzone=21,11 / fast_pskip=0 / chroma_qp_offset=-2 / threads=12 / lookahead_threads=2 / sliced_threads=0 / nr=0 / decimate=0 / interlaced=0 / bluray_compat=0 / constrained_intra=0 / bframes=8 / b_pyramid=2 / b_adapt=2 / b_bias=0 / direct=3 / weightb=1 / open_gop=0 / weightp=2 / keyint=240 / keyint_min=2 / scenecut=40 / intra_refresh=0 / rc_lookahead=0 / rc=2pass / mbtree=0 / bitrate=6600 / ratetol=1.0 / qcomp=0.70 / qpmin=0 / qpmax=69 / qpstep=4 / cplxblur=20.0 / qblur=0.5 / vbv_maxrate=50000 / vbv_bufsize=30000 / nal_hrd=none / filler=0 / ip_ratio=1.25 / pb_ratio=1.20 / aq=3:0.80
Язык : English
Default : Да
Forced : Нет

Аудио #1
Идентификатор : 2
Формат : AC-3
Формат/Информация : Audio Coding 3
Расширение режима : CM (complete main)
Параметр Endianness формата : Big
Идентификатор кодека : A_AC3
Продолжительность : 1 ч. 45 м.
Вид битрейта : Постоянный
Битрейт : 384 Кбит/сек
Каналы : 6 каналов
Расположение каналов : Front: L C R, Side: L R, LFE
Частота : 48,0 КГц
Частота кадров : 31,250 кадров/сек (1536 spf)
Битовая глубина : 16 бит
Метод сжатия : С потерями
Размер потока : 289 Мбайт (5%)
Заголовок : iTunes
Язык : Russian
Default : Да
Forced : Нет

Аудио #2
Идентификатор : 3
Формат : DTS
Формат/Информация : Digital Theater Systems
Профиль формата : ES Matrix / Core
Режим : 16
Параметр Endianness формата : Big
Идентификатор кодека : A_DTS
Продолжительность : 1 ч. 45 м.
Вид битрейта : Постоянный
Битрейт : 1509 Кбит/сек
Каналы : 7 каналов / 6 каналов
Расположение каналов : Front: L C R, Side: L R, Back: C, LFE / Front: L C R, Side: L R, LFE
Частота : 48,0 КГц
Частота кадров : 93,750 кадра/сек (512 spf)
Битовая глубина : 24 бит
Метод сжатия : С потерями
Размер потока : 1,11 Гбайт (18%)
Заголовок : Original
Язык : English
Default : Нет
Forced : Нет

Текст #1
Идентификатор : 4
Формат : UTF-8
Идентификатор кодека : S_TEXT/UTF8
Идентификатор кодека/Информация : UTF-8 Plain Text
Продолжительность : 1 ч. 44 м.
Битрейт : 1 бит/сек
Count of elements : 20
Размер потока : 1,11 Кбайт (0%)
Заголовок : Forced [iTunes]
Язык : Russian
Default : Да
Forced : Нет

Текст #2
Идентификатор : 5
Формат : UTF-8
Идентификатор кодека : S_TEXT/UTF8
Идентификатор кодека/Информация : UTF-8 Plain Text
Продолжительность : 1 ч. 44 м.
Битрейт : 131 бит/сек
Count of elements : 2007
Размер потока : 100 Кбайт (0%)
Заголовок : Full [iTunes]
Язык : Russian
Default : Нет
Forced : Нет

Текст #3
Идентификатор : 6
Формат : UTF-8
Идентификатор кодека : S_TEXT/UTF8
Идентификатор кодека/Информация : UTF-8 Plain Text
Продолжительность : 16 с. 725 мс.
Битрейт : 89 бит/сек
Count of elements : 5
Размер потока : 188 байт (0%)
Заголовок : Forced [iTunes]
Язык : English
Default : Нет
Forced : Нет

Текст #4
Идентификатор : 7
Формат : UTF-8
Идентификатор кодека : S_TEXT/UTF8
Идентификатор кодека/Информация : UTF-8 Plain Text
Продолжительность : 1 ч. 36 м.
Битрейт : 92 бит/сек
Count of elements : 1863
Размер потока : 65,2 Кбайт (0%)
Заголовок : Full [iTunes]
Язык : English
Default : Нет
Forced : Нет

Меню
00:00:00.000 : en:00:00:00.000
00:03:43.473 : en:00:03:43.473
00:06:41.651 : en:00:06:41.651
00:09:55.845 : en:00:09:55.845
00:13:28.182 : en:00:13:28.182
00:17:06.025 : en:00:17:06.025
00:21:07.933 : en:00:21:07.933
00:26:02.311 : en:00:26:02.311
00:30:07.514 : en:00:30:07.514
00:33:56.743 : en:00:33:56.743
00:37:43.761 : en:00:37:43.761
00:40:59.457 : en:00:40:59.457
00:45:35.149 : en:00:45:35.149
00:49:00.312 : en:00:49:00.312
00:52:35.152 : en:00:52:35.152
00:55:59.189 : en:00:55:59.189
01:00:50.230 : en:01:00:50.230
01:04:33.244 : en:01:04:33.244
01:08:47.665 : en:01:08:47.665
01:12:04.654 : en:01:12:04.654
01:15:58.554 : en:01:15:58.554
01:19:31.809 : en:01:19:31.809
01:22:46.545 : en:01:22:46.545
01:25:43.972 : en:01:25:43.972
01:29:02.295 : en:01:29:02.295
01:31:44.874 : en:01:31:44.874
01:34:18.528 : en:01:34:18.528
01:37:32.680 : en:01:37:32.680




Релиз от: Автор релиза:
   
Торрент: Зарегистрирован [07 янв 2017, 00:30] За каждые 2 ГБ. аплоада (сидирования) этого торрента начисляется бонус: 0.001 Скачать торрент
Скачать торрент
[ Размер 32.02 КБ / Просмотров 313 ]

Статус:
 
Приватный: Нет (DHT включён)
Размер: 6.25 ГБ (6 713 045 579 байт)
   
Аватара пользователя

Администратор
Администратор
 
Раздал: 2.33 ПБ
Скачал: 1.02 ПБ
Ратио: 2.281
Сообщения: 3722
Зарегистрирован: 07 май 2010, 17:29
Medals: 1
Лучший релиз за месяц (1)
  • Личное сообщение
  • ICQ

Вернуться в Фильмы 2016 (новинки)

Кто сейчас на конференции

Зарегистрированные пользователи: нет зарегистрированных пользователей

Ресурс не предоставляет электронные версии произведений, а занимается лишь коллекционированием и каталогизацией ссылок, присылаемых и публикуемых на форуме нашими читателями. Если вы являетесь правообладателем какого-либо представленного материала и не желаете чтобы ссылка на него находилась в нашем каталоге, свяжитесь с нами и мы незамедлительно удалим её. Файлы для обмена на трекере предоставлены пользователями сайта, и администрация не несёт ответственности за их содержание. Просьба не заливать файлы, защищенные авторскими правами, а также файлы нелегального содержания!
cron