Любой ценой / Hell or High Water (2016) BDRip 1080p от New-Team & qqss44 | Лицензия скачать торрент

Киноновинки, новинки кинопроката, горячие новинки

Модератор: Модераторы видео

  • Статистика раздачи
Размер: 7.75 ГБ   |  Зарегистрирован: 28 дек 2016, 23:15   |   .torrent скачан: 0 раз
Сидеров: 416  [ 0 байт/сек ]     Личеров: 73  [ 0 байт/сек ]  
Список файлов : Кто скачал : Раздают : Скачивают : Кто благодарил : История : Не раздающие : Запрашивали сидеров : Внешние трекеры 
  

Любой ценой / Hell or High Water (2016) BDRip 1080p от New-Team & qqss44 | Лицензия

Сообщение Админ » 28 дек 2016, 23:15


Анонсы 1080p от qqss44


✘ Любой ценой ✘



Информация о фильме
✦ Год выхода: 2016
✦ Название: Любой ценой
✦ Жанр: Драма, криминал
✦ Оригинальное название: Hell or High Water
✦ Режиссер: Дэвид Маккензи
✦ В ролях: Джефф Бриджес, Крис Пайн, Бен Фостер, Джил Бирмингем, Дейл Дикки, Уильям Стерчи, Бак Тейлор, Кристин Берг, Кит Мэривезер, Жакмо Буззел


Описание фильма
Им нужно совсем немного. Каких-то пару тысяч долларов, чтоб выкупить закладную и переписать дом на детей. А значит, окрестным банкам не уйти от дерзких налетов двух отчаянных братьев. Старший - рассудителен, младший - горяч, но так или иначе, а на этом пути им придется столкнуться с рейнджером Гамильтоном! И хотя до пенсии ему пару недель, но если закон был нарушен, значит, нарушителям уже несдобровать. К тому же, в напарниках у Гамильтона - офицер-краснокожий...



✦ Страна: США
✦ Продолжительность: 01:42:16
✦ Перевод: дублированный -
|| Лицензия ||



Информация о файле
✦ Формат:| MKV | x264 |
✦ Качество: BDRip 1080p
✦ Видео: X264/MPEG4-AVC | 1920x798 (2.40:1) | ~9566 kbps | 23.976 fps
✦ Аудио Rus: AC3 | 48 KHz | 5.1 (Front: L С R Side: L R) + LFE | ~640 kbps
✦ Аудио Eng: AC3 | 48 KHz | 5.1 (Front: L С R Side: L R) + LFE | ~640 kbps
✦ Субтитры: || (форс и полные, A.Матвеев) || английские (полные) ||


x264 [info]: frame I:858 Avg QP:16.91 size:220934
x264 [info]: frame P:30215 Avg QP:19.78 size: 89760
x264 [info]: frame B:116033 Avg QP:21.43 size: 38223

Общее
Уникальный идентификатор : 175550810869039264071934172404021884172 (0x8411DB3930E09B68879D5A48AD6E750C)
Полное имя : X:ATorrentHell.or.High.Water.(2016).BDRip.1080p.(qqss44).mkv
Формат : Matroska
Версия формата : Version 2
Размер файла : 7,75 Гбайт
Продолжительность : 1 ч. 42 м.
Общий поток : 10,8 Мбит/сек
Название фильма : Hell.or.High.Water.(2016).BDRip1080p.(qqss44)
Дата кодирования : UTC 2016-12-28 09:24:46
Программа кодирования : mkvmerge v7.9.0 ('Birds') 64bit
Библиотека кодирования : libebml v1.3.1 + libmatroska v1.4.2

Видео
Идентификатор : 1
Формат : AVC
Формат/Информация : Advanced Video Codec
Профиль формата : [email protected]
Параметр CABAC формата : Да
Параметр ReFrames формата : 5 кадров
Идентификатор кодека : V_MPEG4/ISO/AVC
Продолжительность : 1 ч. 42 м.
Битрейт : 9566 Кбит/сек
Ширина : 1920 пикселей
Высота : 798 пикселей
Соотношение сторон : 2,40:1
Режим частоты кадров : Постоянный
Частота кадров : 23,976 (24000/1001) кадра/сек
Цветовое пространство : YUV
Субдискретизация насыщенности : 4:2:0
Битовая глубина : 8 бит
Тип развёртки : Прогрессивная
Бит/(Пиксели*Кадры) : 0.260
Размер потока : 6,83 Гбайт (88%)
Заголовок : Hell.or.High.Water.(2016)
Библиотека кодирования : x264 core 148 r2721kMod 72d53ab
Настройки программы : cabac=1 / ref=5 / deblock=1:-3:-3 / analyse=0x3:0x133 / me=umh / subme=11 / psy=1 / fade_compensate=0.00 / psy_rd=1.00:0.00 / mixed_ref=1 / me_range=32 / chroma_me=1 / trellis=2 / 8x8dct=1 / cqm=0 / deadzone=21,11 / fast_pskip=0 / chroma_qp_offset=-2 / threads=12 / lookahead_threads=3 / sliced_threads=0 / nr=0 / decimate=0 / interlaced=0 / bluray_compat=0 / constrained_intra=0 / fgo=0 / bframes=11 / b_pyramid=2 / b_adapt=2 / b_bias=0 / direct=3 / weightb=1 / open_gop=0 / weightp=2 / keyint=240 / keyint_min=23 / scenecut=40 / intra_refresh=0 / rc=2pass / mbtree=0 / bitrate=9566 / ratetol=1.0 / qcomp=0.60 / qpmin=0 / qpmax=69 / qpstep=4 / cplxblur=20.0 / qblur=0.5 / ip_ratio=1.40 / pb_ratio=1.30 / aq=3:0.80
Язык : English
Default : Да
Forced : Нет

Аудио #1
Идентификатор : 2
Формат : AC-3
Формат/Информация : Audio Coding 3
Расширение режима : CM (complete main)
Параметр Endianness формата : Big
Идентификатор кодека : A_AC3
Продолжительность : 1 ч. 42 м.
Вид битрейта : Постоянный
Битрейт : 640 Кбит/сек
Каналы : 6 каналов
Расположение каналов : Front: L C R, Side: L R, LFE
Частота : 48,0 КГц
Частота кадров : 31,250 кадров/сек (1536 spf)
Метод сжатия : С потерями
Размер потока : 468 Мбайт (6%)
Заголовок : DUB | DD5.1 @ 640 kbps
Язык : Russian
Default : Да
Forced : Нет

Аудио #2
Идентификатор : 3
Формат : AC-3
Формат/Информация : Audio Coding 3
Расширение режима : CM (complete main)
Параметр Endianness формата : Big
Идентификатор кодека : A_AC3
Продолжительность : 1 ч. 42 м.
Вид битрейта : Постоянный
Битрейт : 640 Кбит/сек
Каналы : 6 каналов
Расположение каналов : Front: L C R, Side: L R, LFE
Частота : 48,0 КГц
Частота кадров : 31,250 кадров/сек (1536 spf)
Метод сжатия : С потерями
Размер потока : 468 Мбайт (6%)
Заголовок : Original | DD5.1 @ 640 kbps
Язык : English
Default : Нет
Forced : Нет

Текст #1
Идентификатор : 4
Формат : UTF-8
Идентификатор кодека : S_TEXT/UTF8
Идентификатор кодека/Информация : UTF-8 Plain Text
Продолжительность : 1 ч. 37 м.
Битрейт : 0 бит/сек
Count of elements : 8
Размер потока : 607 байт (0%)
Заголовок : FORCED
Язык : Russian
Default : Да
Forced : Нет

Текст #2
Идентификатор : 5
Формат : UTF-8
Идентификатор кодека : S_TEXT/UTF8
Идентификатор кодека/Информация : UTF-8 Plain Text
Продолжительность : 1 ч. 38 м.
Битрейт : 84 бит/сек
Count of elements : 805
Размер потока : 61,4 Кбайт (0%)
Заголовок : FULL
Язык : Russian
Default : Нет
Forced : Нет

Текст #3
Идентификатор : 6
Формат : UTF-8
Идентификатор кодека : S_TEXT/UTF8
Идентификатор кодека/Информация : UTF-8 Plain Text
Продолжительность : 1 ч. 34 м.
Битрейт : 52 бит/сек
Count of elements : 1167
Размер потока : 36,7 Кбайт (0%)
Заголовок : FULL
Язык : English
Default : Нет
Forced : Нет

Меню
00:00:00.000 : en:Chapter 1
00:09:37.243 : en:Chapter 2
00:13:50.454 : en:Chapter 3
00:22:14.583 : en:Chapter 4
00:28:40.385 : en:Chapter 5
00:31:54.329 : en:Chapter 6
00:40:49.613 : en:Chapter 7
00:46:49.932 : en:Chapter 8
00:55:45.091 : en:Chapter 9
01:02:06.472 : en:Chapter 10
01:09:52.897 : en:Chapter 11
01:14:04.648 : en:Chapter 12
01:20:56.226 : en:Chapter 13
01:29:09.135 : en:Chapter 14
01:35:03.864 : en:Chapter 15
01:38:28.277 : en:Chapter 16


Релиз от:
   
Торрент: Зарегистрирован [28 дек 2016, 23:15] За каждые 2 ГБ. аплоада (сидирования) этого торрента начисляется бонус: 0.001 Скачать торрент
Скачать торрент
[ Размер 39.55 КБ / Просмотров 67 ]

Статус:
 
Приватный: Нет (DHT включён)
Размер: 7.75 ГБ (8 320 367 858 байт)
   
Аватара пользователя

Администратор
Администратор
 
Раздал: 2.33 ПБ
Скачал: 1.02 ПБ
Ратио: 2.281
Сообщения: 3722
Зарегистрирован: 07 май 2010, 17:29
Medals: 1
Лучший релиз за месяц (1)
  • Личное сообщение
  • ICQ

Вернуться в Фильмы 2016 (новинки)

Кто сейчас на конференции

Зарегистрированные пользователи: нет зарегистрированных пользователей

Ресурс не предоставляет электронные версии произведений, а занимается лишь коллекционированием и каталогизацией ссылок, присылаемых и публикуемых на форуме нашими читателями. Если вы являетесь правообладателем какого-либо представленного материала и не желаете чтобы ссылка на него находилась в нашем каталоге, свяжитесь с нами и мы незамедлительно удалим её. Файлы для обмена на трекере предоставлены пользователями сайта, и администрация не несёт ответственности за их содержание. Просьба не заливать файлы, защищенные авторскими правами, а также файлы нелегального содержания!
cron