Изгой-один: Звёздные войны. Истории / Rogue One: A Star Wars Story (2016) TS | D скачать торрент

Киноновинки, новинки кинопроката, горячие новинки

Модератор: Модераторы видео

  • Статистика раздачи
Размер: 1.37 ГБ   |  Зарегистрирован: 27 дек 2016, 21:16   |   .torrent скачан: 3275 раз
Сидеров: 1648  [ 0 байт/сек ]     Личеров: 451  [ 0 байт/сек ]  
Список файлов : Кто скачал : Раздают : Скачивают : Кто благодарил : История : Не раздающие : Запрашивали сидеров : Внешние трекеры 
  

Изгой-один: Звёздные войны. Истории / Rogue One: A Star Wars Story (2016) TS | D

Сообщение Админ » 27 дек 2016, 21:16

Информация о фильме
Название: Изгой-один: Звёздные войны. Истории
Оригинальное название: Rogue One: A Star Wars Story
Год выпуска: 2016
Жанр: Фантастика, боевик, приключения
Режиссер: Гарет Эдвардс
В ролях: Фелисити Джонс, Диего Луна, Алан Тьюдик, Донни Йен, Вэнь Цзянь, Бен Мендельсон, Форест Уитакер, Риз Ахмед, Мадс Миккельсен, Джимми Смитс

О фильме:
Галактическая Империя пребывает в апогее своего могущества. Освоена целина и дальний космос, в два раза повышены настриги и надои, достигнуты значительные успехи в выведении чистой расы и ударными темпами завершается очередная "стройка века". Жить стало лучше, жить стало веселее. Лишь небольшая клика чужеродных элементов радикальной ориентации стоит на позициях активной борьбы с действующей властью. Они ведут антиимперскую пропаганду, клевещут на материальное состояние трудящихся и допускают злобные выпады против членов правящей верхушки. Некоторые готовы лично совершить террористический акт, уничтожив наиболее значимый объект народного хозяйства. Чтобы на корню пресечь гнусные клеветнические измышления и подрывную деятельность, имперское правительство присылает своего лучшего специалиста по борьбе с бандитизмом.



Страна: США
Студия: Allison Shearmur Productions, Black Hangar Studios, Lucasfilm Ltd., Walt Disney Studios Motion Pictures
Продолжительность: 02:05:34
Перевод: Дублированный

Файл
Кодек: XviD
Качество: TS
Видео: 1169 Кбит/с, 720x304
Звук: Русский (AC3, 2 ch, 384 Кбит/с)

Без рекламы

Семпл
General
Complete name : D:Rogue.2016.TS.Rustorrents.avi
Format : AVI
Format/Info : Audio Video Interleave
File size : 1.37 GiB
Duration : 2 h 5 min
Overall bit rate : 1 565 kb/s
Movie name : Rogue.2016.TS.Rustorrents
Director : rustorrents.info
Writing application : VirtualDubMod 1.5.10.3 | http://www.virtualdub-fr.org || (build 2550/release)

Video
ID : 0
Format : MPEG-4 Visual
Format profile : Advanced [email protected]
Format settings, BVOP : 2
Format settings, QPel : No
Format settings, GMC : No warppoints
Format settings, Matrix : Custom
Codec ID : XVID
Codec ID/Hint : XviD
Duration : 2 h 5 min
Bit rate : 1 169 kb/s
Width : 720 pixels
Height : 304 pixels
Display aspect ratio : 2.35:1
Frame rate : 29.970 (30000/1001) FPS
Color space : YUV
Chroma subsampling : 4:2:0
Bit depth : 8 bits
Scan type : Progressive
Compression mode : Lossy
Bits/(Pixel*Frame) : 0.178
Stream size : 1.03 GiB (75%)
Writing library : XviD 1.2.1 (UTC 2008-12-04)

Audio
ID : 1
Format : AC-3
Format/Info : Audio Coding 3
Mode extension : CM (complete main)
Format settings, Endianness : Big
Codec ID : 2000
Duration : 2 h 5 min
Bit rate mode : Constant
Bit rate : 384 kb/s
Channel(s) : 2 channels
Channel positions : Front: L R
Sampling rate : 48.0 kHz
Frame rate : 31.250 FPS (1536 spf)
Bit depth : 16 bits
Compression mode : Lossy
Stream size : 345 MiB (25%)
Alignment : Split accross interleaves
Interleave, duration : 33 ms (1.00 video frame)
Interleave, preload duratio : 500 ms



   
Торрент: Зарегистрирован [27 дек 2016, 21:16] Скачать торрент
Скачать торрент
[ Размер 14.47 КБ / Просмотров 1023 ]

Статус:
 
Приватный: Нет (DHT включён)
Размер: 1.37 ГБ (1 474 002 944 байт)
   
Аватара пользователя

Администратор
Администратор
 
Раздал: 2.33 ПБ
Скачал: 1.02 ПБ
Ратио: 2.281
Сообщения: 3722
Зарегистрирован: 07 май 2010, 17:29
Medals: 1
Лучший релиз за месяц (1)
  • Личное сообщение
  • ICQ

Вернуться в Фильмы 2016 (новинки)

Кто сейчас на конференции

Зарегистрированные пользователи: нет зарегистрированных пользователей

Ресурс не предоставляет электронные версии произведений, а занимается лишь коллекционированием и каталогизацией ссылок, присылаемых и публикуемых на форуме нашими читателями. Если вы являетесь правообладателем какого-либо представленного материала и не желаете чтобы ссылка на него находилась в нашем каталоге, свяжитесь с нами и мы незамедлительно удалим её. Файлы для обмена на трекере предоставлены пользователями сайта, и администрация не несёт ответственности за их содержание. Просьба не заливать файлы, защищенные авторскими правами, а также файлы нелегального содержания!
cron