Расплата / The Accountant (2016) BDRip 720p | Line скачать торрент

Киноновинки, новинки кинопроката, горячие новинки

Модератор: Модераторы видео

  • Статистика раздачи
Размер: 5.81 ГБ   |  Зарегистрирован: 25 дек 2016, 03:26   |   .torrent скачан: 23504 раз
Сидеров: 5621  [ 0 байт/сек ]     Личеров: 256  [ 0 байт/сек ]  
Список файлов : Кто скачал : Раздают : Скачивают : Кто благодарил : История : Не раздающие : Запрашивали сидеров : Внешние трекеры 
  

Расплата / The Accountant (2016) BDRip 720p | Line

Сообщение Админ » 25 дек 2016, 03:26

Информация о фильме
Название: Расплата
Оригинальное название: The Accountant
Год выпуска: 2016
Страна: США
Жанр: боевик, триллер, драма, криминал


Перевод: Дубляж - [Line]
Примечание: Релиз без рекламы
Субтитры: русские, английские
Продолжительность: 02:07:54

Режиссер: Гэвин О’Коннор
В ролях: Бен Аффлек (Christian Wolff), Анна Кендрик (Dana Cummings), Дж.К. Симмонс (Ray King), Джон Бернтал (Brax), Джеффри Тэмбор (Francis Silverberg), Синтия Аддай-Робинсон (Marybeth Medina), Джон Литгоу (Lamar Black), Джин Смарт (Rita Blackburn), Энди Умбергер (Ed Chilton), Элисон Райт (Justine), Джейсон Дэвис (Neurologist), Роберт С. Тревилер (Young Chris's Father)


Описание:
Лента расскажет историю математического гения Кристиана Вульфа, который подрабатывает аудитором для самых опасных преступных организаций. Когда ему «на хвост» садится отдел по борьбе с преступностью Министерства финансов во главе с Рэем Кингом Кристиан решает найти себе законопослушного клиента и проводит аудит в компании по производству новейшей робототехники, где сотрудница финансового отдела обнаружила «нестыковочку» в миллионы долларов. Но стоит Кристиану взяться за счета и выйти на след, как в деле начинают появляться жертвы.

Рейтинг:

MPAA: R - Лицам до 17 лет обязательно присутствие взрослого

Качество: BDRip 720p
Формат: MKV
Видео: AVC, 1280x536 (2.40:1), 4606 kbps, 23,976 fps, 0,280 bpp
Аудио №1: русский / AC3 / 2.0 / 48 kHz / 384 kbps / |Дубляж, Line|
Аудио №2: английский / DTS / 5.1 / 48 kHz / 1509 kbps / 24 bit
Навигация по главам: есть
Сэмпл


General
Unique ID : 171700954472642110932763229448744669992 (0x812C66A5F62B9E42965A806AE15B1328)
Complete name : E:The.Accountant.2016.BDRip.720p.mkv
Format : Matroska
Format version : Version 4 / Version 2
File size : 5.81 GiB
Duration : 2 h 7 min
Overall bit rate : 6 501 kb/s
Encoded date : UTC 2016-12-24 01:36:56
Writing application : mkvmerge v8.3.0 ('Over the Horizon') 64bit
Writing library : libebml v1.3.1 + libmatroska v1.4.2

Video
ID : 1
Format : AVC
Format/Info : Advanced Video Codec
Format profile : [email protected]
Format settings, CABAC : Yes
Format settings, ReFrames : 5 frames
Codec ID : V_MPEG4/ISO/AVC
Duration : 2 h 7 min
Bit rate : 4 606 kb/s
Width : 1 280 pixels
Height : 536 pixels
Display aspect ratio : 2.40:1
Frame rate mode : Constant
Frame rate : 23.976 FPS
Color space : YUV
Chroma subsampling : 4:2:0
Bit depth : 8 bits
Scan type : Progressive
Bits/(Pixel*Frame) : 0.280
Stream size : 4.11 GiB (71%)
Writing library : x264 core 148 r2705 3f5ed56
Encoding settings : cabac=1 / ref=5 / deblock=1:0:0 / analyse=0x3:0x133 / me=umh / subme=7 / psy=1 / psy_rd=1.00:0.00 / mixed_ref=1 / me_range=16 / chroma_me=1 / trellis=1 / 8x8dct=1 / cqm=0 / deadzone=21,11 / fast_pskip=0 / chroma_qp_offset=-2 / threads=17 / lookahead_threads=2 / sliced_threads=0 / nr=0 / decimate=1 / interlaced=0 / bluray_compat=0 / constrained_intra=0 / bframes=3 / b_pyramid=2 / b_adapt=1 / b_bias=0 / direct=1 / weightb=1 / open_gop=0 / weightp=2 / keyint=250 / keyint_min=23 / scenecut=40 / intra_refresh=0 / rc_lookahead=40 / rc=2pass / mbtree=1 / bitrate=4606 / ratetol=1.0 / qcomp=0.60 / qpmin=0 / qpmax=69 / qpstep=4 / cplxblur=20.0 / qblur=0.5 / ip_ratio=1.40 / aq=1:1.00
Language : English
Default : Yes
Forced : No

Audio #1
ID : 2
Format : AC-3
Format/Info : Audio Coding 3
Mode extension : CM (complete main)
Format settings, Endianness : Big
Codec ID : A_AC3
Duration : 2 h 7 min
Bit rate mode : Constant
Bit rate : 384 kb/s
Channel(s) : 2 channels
Channel positions : Front: L R
Sampling rate : 48.0 kHz
Frame rate : 31.250 FPS (1536 spf)
Compression mode : Lossy
Stream size : 351 MiB (6%)
Title : Dub
Language : Russian
Default : Yes
Forced : No

Audio #2
ID : 3
Format : DTS
Format/Info : Digital Theater Systems
Mode : 16
Format settings, Endianness : Big
Codec ID : A_DTS
Duration : 2 h 7 min
Bit rate mode : Constant
Bit rate : 1 509 kb/s
Channel(s) : 6 channels
Channel positions : Front: L C R, Side: L R, LFE
Sampling rate : 48.0 kHz
Frame rate : 93.750 FPS (512 spf)
Bit depth : 24 bits
Compression mode : Lossy
Stream size : 1.35 GiB (23%)
Title : Original
Language : English
Default : No
Forced : No

Text #1
ID : 4
Format : UTF-8
Codec ID : S_TEXT/UTF8
Codec ID/Info : UTF-8 Plain Text
Duration : 2 h 0 min
Bit rate : 94 b/s
Count of elements : 1295
Stream size : 83.0 KiB (0%)
Title : Full
Language : Russian
Default : No
Forced : No

Text #2
ID : 5
Format : UTF-8
Codec ID : S_TEXT/UTF8
Codec ID/Info : UTF-8 Plain Text
Duration : 2 h 0 min
Bit rate : 98 b/s
Count of elements : 1372
Stream size : 86.5 KiB (0%)
Title : SDH
Language : Russian
Default : No
Forced : No

Text #3
ID : 6
Format : UTF-8
Codec ID : S_TEXT/UTF8
Codec ID/Info : UTF-8 Plain Text
Duration : 1 h 58 min
Bit rate : 54 b/s
Count of elements : 1495
Stream size : 47.5 KiB (0%)
Title : Full
Language : English
Default : No
Forced : No

Text #4
ID : 7
Format : UTF-8
Codec ID : S_TEXT/UTF8
Codec ID/Info : UTF-8 Plain Text
Duration : 1 h 59 min
Bit rate : 59 b/s
Count of elements : 1691
Stream size : 52.3 KiB (0%)
Title : SDH
Language : English
Default : No
Forced : No

Menu
00:00:00.000 : en:00:00:00.000
00:13:01.447 : en:00:13:01.447
00:20:36.277 : en:00:20:36.277
00:29:30.394 : en:00:29:30.394
00:38:44.656 : en:00:38:44.656
00:49:33.679 : en:00:49:33.679
01:00:05.435 : en:01:00:05.435
01:13:39.707 : en:01:13:39.707
01:25:57.069 : en:01:25:57.069
01:39:15.658 : en:01:39:15.658
01:54:31.156 : en:01:54:31.156
02:01:40.251 : en:02:01:40.251

   
Торрент: Зарегистрирован [25 дек 2016, 03:26] За каждые 2 ГБ. аплоада (сидирования) этого торрента начисляется бонус: 0.001 Скачать торрент
Скачать торрент
[ Размер 29.78 КБ / Просмотров 94 ]

Статус:
 
Приватный: Нет (DHT включён)
Размер: 5.81 ГБ (6 236 164 391 байт)
   
Аватара пользователя

Администратор
Администратор
 
Раздал: 2.33 ПБ
Скачал: 1.02 ПБ
Ратио: 2.281
Сообщения: 3722
Зарегистрирован: 07 май 2010, 17:29
Medals: 1
Лучший релиз за месяц (1)
  • Личное сообщение
  • ICQ

Вернуться в Фильмы 2016 (новинки)

Кто сейчас на конференции

Зарегистрированные пользователи: нет зарегистрированных пользователей

Ресурс не предоставляет электронные версии произведений, а занимается лишь коллекционированием и каталогизацией ссылок, присылаемых и публикуемых на форуме нашими читателями. Если вы являетесь правообладателем какого-либо представленного материала и не желаете чтобы ссылка на него находилась в нашем каталоге, свяжитесь с нами и мы незамедлительно удалим её. Файлы для обмена на трекере предоставлены пользователями сайта, и администрация не несёт ответственности за их содержание. Просьба не заливать файлы, защищенные авторскими правами, а также файлы нелегального содержания!
cron