Плохой Санта 2 / Bad Santa 2 (2016) WEB-DL 1080p | iTunes скачать торрент

Киноновинки, новинки кинопроката, горячие новинки

Модератор: Модераторы видео

  • Статистика раздачи
Размер: 3.44 ГБ   |  Зарегистрирован: 23 дек 2016, 17:04   |   .torrent скачан: 11566 раз
Сидеров: 8702  [ 0 байт/сек ]     Личеров: 3180  [ 0 байт/сек ]  
Список файлов : Кто скачал : Раздают : Скачивают : Кто благодарил : История : Не раздающие : Запрашивали сидеров : Внешние трекеры 
  

Плохой Санта 2 / Bad Santa 2 (2016) WEB-DL 1080p | iTunes

Сообщение Админ » 23 дек 2016, 17:04

Информация о фильме
Название: Плохой Санта 2
Оригинальное название: Bad Santa 2
Год выхода: 2016
Жанр: драма, Комедия, криминал
Режиссер: Марк Уотерс
В ролях: Билли Боб Торнтон, Кэти Бейтс, Тони Кокс, Кристина Хендрикс, Бретт Келли, Райан Хансен, Дженни Зигрино, Джефф Скоурон, Кристина Розато, Майк Старр
О фильме: Продолжение новогодних приключений проходимца Вилли, который в канун Рождества, как всегда, переодевается в Санта-Клауса. Ограбить очередной супермаркет в этом наряде не представляет никаких проблем. Но в Рождество случаются всякие чудеса. Каким оно будет для Вилли на этот раз?

Выпущено: США / Broad Green Pictures, Ingenious Media, Miramax
Продолжительность: 01:28:28
Озвучивание: Дублированное [iTunes]

Файл
Формат: MKV
Качество: WEB-DL 1080p
Видео: MPEG-4 AVC, 5074 kb/s, 1920x1038
Аудио: AC3, 384 kb/s (6 ch)

Format : Matroska
Format version : Version 2
File size : 3.44 GiB
Duration : 1 h 28 min
Overall bit rate : 5 568 kb/s
Movie name : Bad Santa 2 (2016) - Release for HDCLUB
Encoded date : UTC 2016-12-22 23:41:39
Writing application : mkvmerge v3.4.0 ('Rapunzel') built on May 15 2010 09:38:20
Writing library : libebml v0.8.0 + libmatroska v0.9.0

Video
ID : 1
Format : AVC
Format/Info : Advanced Video Codec
Format profile : [email protected]
Format settings, CABAC : Yes
Format settings, ReFrames : 4 frames
Codec ID : V_MPEG4/ISO/AVC
Duration : 1 h 28 min
Bit rate : 5 074 kb/s
Width : 1 920 pixels
Height : 1 038 pixels
Display aspect ratio : 1.85:1
Frame rate mode : Constant
Frame rate : 25.000 FPS
Color space : YUV
Chroma subsampling : 4:2:0
Bit depth : 8 bits
Scan type : Progressive
Bits/(Pixel*Frame) : 0.102
Stream size : 3.14 GiB (91%)
Title : Bad Santa 2 (2016) - Release for HDCLUB
Language : English
Default : Yes
Forced : No
Color range : Limited
Color primaries : BT.709
Transfer characteristics : BT.709
Matrix coefficients : BT.709

Audio
ID : 2
Format : AC-3
Format/Info : Audio Coding 3
Mode extension : CM (complete main)
Format settings, Endianness : Big
Codec ID : A_AC3
Duration : 1 h 28 min
Bit rate mode : Constant
Bit rate : 384 kb/s
Channel(s) : 6 channels
Channel positions : Front: L C R, Side: L R, LFE
Sampling rate : 48.0 kHz
Frame rate : 31.250 FPS (1536 spf)
Compression mode : Lossy
Stream size : 243 MiB (7%)
Title : AC3 5.1 @ 384 kbps - DUB, iTunes
Language : Russian
Default : Yes
Forced : No

Menu
00:00:00.000 : en:1
00:07:29.200 : en:2
00:14:11.040 : en:3
00:21:25.560 : en:4
00:27:56.360 : en:5
00:35:03.440 : en:6
00:41:13.440 : en:7
00:47:36.440 : en:8
00:53:49.560 : en:9
01:00:49.920 : en:10
01:07:50.200 : en:11
01:14:27.920 : en:12

Релиз:
   
Торрент: Зарегистрирован [23 дек 2016, 17:04] Скачать торрент
Скачать торрент
[ Размер 18.17 КБ / Просмотров 150 ]

Статус:
 
Приватный: Нет (DHT включён)
Размер: 3.44 ГБ (3 695 224 145 байт)
   
Аватара пользователя

Администратор
Администратор
 
Раздал: 2.33 ПБ
Скачал: 1.02 ПБ
Ратио: 2.281
Сообщения: 3722
Зарегистрирован: 07 май 2010, 17:29
Medals: 1
Лучший релиз за месяц (1)
  • Личное сообщение
  • ICQ

Вернуться в Фильмы 2016 (новинки)

Кто сейчас на конференции

Зарегистрированные пользователи: нет зарегистрированных пользователей

Ресурс не предоставляет электронные версии произведений, а занимается лишь коллекционированием и каталогизацией ссылок, присылаемых и публикуемых на форуме нашими читателями. Если вы являетесь правообладателем какого-либо представленного материала и не желаете чтобы ссылка на него находилась в нашем каталоге, свяжитесь с нами и мы незамедлительно удалим её. Файлы для обмена на трекере предоставлены пользователями сайта, и администрация не несёт ответственности за их содержание. Просьба не заливать файлы, защищенные авторскими правами, а также файлы нелегального содержания!
cron