Чудо на Гудзоне / Sully (2016) BDRip 720p от New-Team | Лицензия скачать торрент

Киноновинки, новинки кинопроката, горячие новинки

Модератор: Модераторы видео

  • Статистика раздачи
Размер: 4.28 ГБ   |  Зарегистрирован: 19 дек 2016, 00:13   |   .torrent скачан: 22 раз
Сидеров: 99  [ 0 байт/сек ]     Личеров: 5  [ 0 байт/сек ]  
Список файлов : Кто скачал : Раздают : Скачивают : Кто благодарил : История : Не раздающие : Запрашивали сидеров : Внешние трекеры 
  

Чудо на Гудзоне / Sully (2016) BDRip 720p от New-Team | Лицензия

Сообщение Админ » 19 дек 2016, 00:13

Информация о фильме
Название: Чудо на Гудзоне
Оригинальное название: Sully
Страна: США
Студия: FilmNation Entertainment, Flashlight Films, Warner Bros. Pictures, The Kennedy/Marshall Company
Жанр: Драма, биография
Год выпуска: 2016
Продолжительность: 01:35:50

Перевод: Профессиональный (дублированный)
Cубтитры: Rus, Eng
Оригинальная аудиодорожка: английский

Режиссер: Клинт Иствуд / Clint Eastwood

В ролях: Том Хэнкс, Аарон Экхарт, Валери Махаффей, Делфи Хэррингтон, Майк О`Мэлли, Джейми Шеридан, Анна Ганн, Холт МакКэллани, Ахмед Хуссэйн, Лора Линни

Описание: Произошедшее 15 января 2009 года назовут «Чудом на Гудзоне». В тот день капитан рейса 1549 Чесли Салленбергер совершил аварийную посадку самолета A320 на холодные воды реки Гудзон в Нью-Йорке. При этом никто из находившихся на борту 155 человек не пострадал. Но, несмотря на все почести со стороны общественности и СМИ, было начато расследование, которое угрожало профессиональной репутации и многолетней карьере капитана Салли.



Тип релиза: BDRip 720p
Контейнер: MKV

Видео: MPEG-4 AVC, 5300 Кбит/с, 1280x536, 23,976 fps
Аудио: Rus, AC3, 448 kb/s (6 ch), 48 kHz
Аудио 2: Eng, AC3, 640 kb/s (6 ch), 48 kHz
Формат субтитров: softsub (SRT)

Раздача от:

x264 [info]: frame I:1332 Avg QP:11.91 size:113207
x264 [info]: frame P:32573 Avg QP:13.36 size: 49296
x264 [info]: frame B:103973 Avg QP:13.46 size: 19745

Format : Matroska
Format version : Version 4 / Version 2
File size : 4.28 GiB
Duration : 1h 35mn
Overall bit rate : 6 390 Kbps
Movie name : Чудо на Гудзоне. (Tonik)
Encoded date : UTC 2016-12-18 15:49:57
Writing application : mkvmerge v7.1.0 ('Good Love') 64bit built on Jul 27 2014 13:06:55
Writing library : libebml v1.3.0 + libmatroska v1.4.1
_STATISTICS_WRITING_APP : mkvmerge v7.1.0 ('Good Love') 64bit built on Jul 27 2014 13:06:55
_STATISTICS_WRITING_DATE_UTC : 2016-12-18 15:49:57
_STATISTICS_TAGS : BPS DURATION NUMBER_OF_FRAMES NUMBER_OF_BYTES
DURATION : 01:35:50.656000000
NUMBER_OF_FRAMES : 179708
NUMBER_OF_BYTES : 322036736

Video
ID : 1
Format : AVC
Format/Info : Advanced Video Codec
Format profile : [email protected]
Format settings, CABAC : Yes
Format settings, ReFrames : 12 frames
Codec ID : V_MPEG4/ISO/AVC
Bit rate : 5 300 Kbps
Width : 1 280 pixels
Height : 536 pixels
Display aspect ratio : 2.40:1
Frame rate mode : Variable
Original frame rate : 23.976 fps
Color space : YUV
Chroma subsampling : 4:2:0
Bit depth : 8 bits
Scan type : Progressive
Bits/(Pixel*Frame) : 0.322
Writing library : x264 core 148 r2665kMod a01e339
Encoding settings : cabac=1 / ref=12 / deblock=1:-3:-3 / analyse=0x3:0x133 / me=umh / subme=11 / psy=1 / fade_compensate=0.00 / psy_rd=1.05:0.00 / mixed_ref=1 / me_range=32 / chroma_me=1 / trellis=2 / 8x8dct=1 / cqm=0 / deadzone=21,11 / fast_pskip=0 / chroma_qp_offset=-2 / threads=17 / lookahead_threads=2 / sliced_threads=0 / nr=0 / decimate=0 / interlaced=0 / bluray_compat=0 / constrained_intra=0 / fgo=0 / bframes=8 / b_pyramid=2 / b_adapt=2 / b_bias=0 / direct=3 / weightb=1 / open_gop=0 / weightp=2 / keyint=240 / keyint_min=24 / scenecut=40 / intra_refresh=0 / rc=2pass / mbtree=0 / bitrate=5300 / ratetol=1.0 / qcomp=0.70 / qpmin=0 / qpmax=69 / qpstep=4 / cplxblur=20.0 / qblur=0.5 / ip_ratio=1.20 / pb_ratio=1.20 / aq=3:0.85
Language : English
Default : Yes
Forced : No
_STATISTICS_WRITING_APP : mkvmerge v7.1.0 ('Good Love') 64bit built on Jul 27 2014 13:06:55
_STATISTICS_WRITING_DATE_UTC : 2016-12-18 15:49:57
_STATISTICS_TAGS : BPS DURATION NUMBER_OF_FRAMES NUMBER_OF_BYTES
DURATION : 01:35:50.662000000
NUMBER_OF_FRAMES : 137878
NUMBER_OF_BYTES : 3809493736

Audio #1
ID : 2
Format : AC-3
Format/Info : Audio Coding 3
Mode extension : CM (complete main)
Format settings, Endianness : Big
Codec ID : A_AC3
Duration : 1h 35mn
Bit rate mode : Constant
Bit rate : 448 Kbps
Channel(s) : 6 channels
Channel positions : Front: L C R, Side: L R, LFE
Sampling rate : 48.0 KHz
Bit depth : 16 bits
Compression mode : Lossy
Stream size : 307 MiB (7%)
Language : Russian
Default : Yes
Forced : No

Audio #2
ID : 3
Format : AC-3
Format/Info : Audio Coding 3
Mode extension : CM (complete main)
Format settings, Endianness : Big
Codec ID : A_AC3
Duration : 1h 35mn
Bit rate mode : Constant
Bit rate : 640 Kbps
Channel(s) : 6 channels
Channel positions : Front: L C R, Side: L R, LFE
Sampling rate : 48.0 KHz
Bit depth : 16 bits
Compression mode : Lossy
Stream size : 439 MiB (10%)
Language : English
Default : No
Forced : No

Text #1
ID : 4
Format : UTF-8
Codec ID : S_TEXT/UTF8
Codec ID/Info : UTF-8 Plain Text
Title : Forced
Language : Russian
Default : Yes
Forced : No

Text #2
ID : 5
Format : UTF-8
Codec ID : S_TEXT/UTF8
Codec ID/Info : UTF-8 Plain Text
Language : Russian
Default : No
Forced : No

Text #3
ID : 6
Format : UTF-8
Codec ID : S_TEXT/UTF8
Codec ID/Info : UTF-8 Plain Text
Language : English
Default : No
Forced : No

Menu
00:00:00.000 : en:00:00:00.000
00:11:12.505 : en:00:11:12.505
00:18:06.168 : en:00:18:06.168
00:29:57.921 : en:00:29:57.921
00:38:55.416 : en:00:38:55.416
00:49:20.749 : en:00:49:20.749
01:00:50.856 : en:01:00:50.856
01:08:16.384 : en:01:08:16.384
01:18:09.810 : en:01:18:09.810
01:26:59.798 : en:01:26:59.798




   
Торрент: Зарегистрирован [19 дек 2016, 00:13] Скачать торрент
Скачать торрент
[ Размер 11.46 КБ / Просмотров 27 ]

Статус:
 
Приватный: Нет (DHT включён)
Размер: 4.28 ГБ (4 593 375 897 байт)
   
Аватара пользователя

Администратор
Администратор
 
Раздал: 2.33 ПБ
Скачал: 1.02 ПБ
Ратио: 2.281
Сообщения: 3722
Зарегистрирован: 07 май 2010, 17:29
Medals: 1
Лучший релиз за месяц (1)
  • Личное сообщение
  • ICQ

Вернуться в Фильмы 2016 (новинки)

Кто сейчас на конференции

Зарегистрированные пользователи: нет зарегистрированных пользователей

Ресурс не предоставляет электронные версии произведений, а занимается лишь коллекционированием и каталогизацией ссылок, присылаемых и публикуемых на форуме нашими читателями. Если вы являетесь правообладателем какого-либо представленного материала и не желаете чтобы ссылка на него находилась в нашем каталоге, свяжитесь с нами и мы незамедлительно удалим её. Файлы для обмена на трекере предоставлены пользователями сайта, и администрация не несёт ответственности за их содержание. Просьба не заливать файлы, защищенные авторскими правами, а также файлы нелегального содержания!
cron