Отряд самоубийц / Suicide Squad (2016) BDRip 1080p от New-Team & qqss44 | Расширенная версия | D скачать торрент

Киноновинки, новинки кинопроката, горячие новинки

Модератор: Модераторы видео

  • Статистика раздачи
Размер: 7.75 ГБ   |  Зарегистрирован: 01 дек 2016, 08:11   |   .torrent скачан: 2417 раз
Сидеров: 1455  [ 0 байт/сек ]     Личеров: 492  [ 0 байт/сек ]  
Список файлов : Кто скачал : Раздают : Скачивают : Кто благодарил : История : Не раздающие : Запрашивали сидеров : Внешние трекеры 
  

Отряд самоубийц / Suicide Squad (2016) BDRip 1080p от New-Team & qqss44 | Расширенная версия | D

Сообщение Админ » 01 дек 2016, 08:11



Анонсы 1080p от qqss44


✘ Отряд самоубийц ✘



Информация о фильме
✦ Год выхода: 2016
✦ Название: Отряд самоубийц
✦ Жанр: Фантастика, боевик, триллер, Комедия, криминал, приключения
✦ Оригинальное название: Suicide Squad
✦ Режиссер: Дэвид Эйр
✦ В ролях: Марго Робби, Уилл Смит, Джаред Лето, Джай Кортни, Кара Делевинь, Джей Эрнандес, Юэль Киннаман, Виола Дэвис


Описание фильма
Правительство решает дать команде суперзлодеев шанс на искупление. Подвох в том, что их отправляют на миссию, где они, вероятнее всего, погибнут.



✦ Выпущено: США, DC Comics, Warner Bros. Pictures
✦ Продолжительность: 02:14:33
✦ Перевод: дублированный + А.Матвеев на расширенные места




Информация о файле
✦ Формат:| MKV | x264 |
✦ Качество: BDRip 1080p
✦ Видео: X264/MPEG4-AVC | 1920x800 (2.40:1) | ~6969 kbps | 23.976 fps
✦ Аудио Rus: AC3 | 48 KHz | 5.1 (Front: L С R Side: L R) + LFE | ~640 kbps
✦ Аудио Eng: AC3 | 48 KHz | 5.1 (Front: L С R Side: L R) + LFE | ~640 kbps
✦ Субтитры: || (форсированные, полные) | Английские (полные) |


x264 [info]: frame I:1404 Avg QP:15.70 size:167028
x264 [info]: frame P:46110 Avg QP:18.84 size: 64518
x264 [info]: frame B:146041 Avg QP:20.35 size: 26178

Общее
Уникальный идентификатор : 197929837299589274943095808302599980552 (0x94E7E669F55B5C8BA06F4A0E489D4608)
Полное имя : X:ATorrentSuicide.Squad.(2016).EXTENDED.BDRip.1080p.(qqss44).mkv
Формат : Matroska
Версия формата : Version 2
Размер файла : 7,75 Гбайт
Продолжительность : 2 ч. 14 м.
Общий поток : 8251 Кбит/сек
Название фильма : Suicide.Squad.(2016).EXTENDED.BDRip.1080p.(qqss44)
Дата кодирования : UTC 2016-11-30 13:57:03
Программа кодирования : mkvmerge v7.9.0 ('Birds') 64bit
Библиотека кодирования : libebml v1.3.1 + libmatroska v1.4.2

Видео
Идентификатор : 1
Формат : AVC
Формат/Информация : Advanced Video Codec
Профиль формата : [email protected]
Параметр CABAC формата : Да
Параметр ReFrames формата : 5 кадров
Идентификатор кодека : V_MPEG4/ISO/AVC
Продолжительность : 2 ч. 14 м.
Битрейт : 6969 Кбит/сек
Ширина : 1920 пикселей
Высота : 800 пикселей
Соотношение сторон : 2,40:1
Режим частоты кадров : Постоянный
Частота кадров : 23,976 (24000/1001) кадра/сек
Цветовое пространство : YUV
Субдискретизация насыщенности : 4:2:0
Битовая глубина : 8 бит
Тип развёртки : Прогрессивная
Бит/(Пиксели*Кадры) : 0.189
Размер потока : 6,55 Гбайт (84%)
Заголовок : Suicide.Squad.(2016).EXTENDED
Библиотека кодирования : x264 core 148 r2721kMod 72d53ab
Настройки программы : cabac=1 / ref=5 / deblock=1:-3:-3 / analyse=0x3:0x133 / me=umh / subme=11 / psy=1 / fade_compensate=0.00 / psy_rd=1.00:0.00 / mixed_ref=1 / me_range=32 / chroma_me=1 / trellis=2 / 8x8dct=1 / cqm=0 / deadzone=21,11 / fast_pskip=0 / chroma_qp_offset=-2 / threads=12 / lookahead_threads=2 / sliced_threads=0 / nr=0 / decimate=0 / interlaced=0 / bluray_compat=0 / constrained_intra=0 / fgo=0 / bframes=9 / b_pyramid=2 / b_adapt=2 / b_bias=0 / direct=3 / weightb=1 / open_gop=0 / weightp=2 / keyint=240 / keyint_min=23 / scenecut=40 / intra_refresh=0 / rc=2pass / mbtree=0 / bitrate=6969 / ratetol=1.0 / qcomp=0.60 / qpmin=0 / qpmax=69 / qpstep=4 / cplxblur=20.0 / qblur=0.5 / ip_ratio=1.40 / pb_ratio=1.30 / aq=3:0.70
Язык : English
Default : Да
Forced : Нет

Аудио #1
Идентификатор : 2
Формат : AC-3
Формат/Информация : Audio Coding 3
Расширение режима : CM (complete main)
Параметр Endianness формата : Big
Идентификатор кодека : A_AC3
Продолжительность : 2 ч. 14 м.
Вид битрейта : Постоянный
Битрейт : 640 Кбит/сек
Каналы : 6 каналов
Расположение каналов : Front: L C R, Side: L R, LFE
Частота : 48,0 КГц
Частота кадров : 31,250 кадров/сек (1536 spf)
Метод сжатия : С потерями
Размер потока : 616 Мбайт (8%)
Заголовок : DUB | DD5.1 @ 640 kbps
Язык : Russian
Default : Нет
Forced : Нет

Аудио #2
Идентификатор : 3
Формат : AC-3
Формат/Информация : Audio Coding 3
Расширение режима : CM (complete main)
Параметр Endianness формата : Big
Идентификатор кодека : A_AC3
Продолжительность : 2 ч. 14 м.
Вид битрейта : Постоянный
Битрейт : 640 Кбит/сек
Каналы : 6 каналов
Расположение каналов : Front: L C R, Side: L R, LFE
Частота : 48,0 КГц
Частота кадров : 31,250 кадров/сек (1536 spf)
Метод сжатия : С потерями
Размер потока : 616 Мбайт (8%)
Заголовок : Original | DD5.1 @ 640 kbps
Язык : English
Default : Нет
Forced : Нет

Текст #1
Идентификатор : 4
Формат : UTF-8
Идентификатор кодека : S_TEXT/UTF8
Идентификатор кодека/Информация : UTF-8 Plain Text
Продолжительность : 2 ч. 13 м.
Битрейт : 5 бит/сек
Count of elements : 110
Размер потока : 5,01 Кбайт (0%)
Заголовок : Forced
Язык : Russian
Default : Да
Forced : Нет

Текст #2
Идентификатор : 5
Формат : UTF-8
Идентификатор кодека : S_TEXT/UTF8
Идентификатор кодека/Информация : UTF-8 Plain Text
Продолжительность : 2 ч. 13 м.
Битрейт : 72 бит/сек
Count of elements : 1570
Размер потока : 71,4 Кбайт (0%)
Заголовок : Full
Язык : Russian
Default : Нет
Forced : Нет

Текст #3
Идентификатор : 6
Формат : UTF-8
Идентификатор кодека : S_TEXT/UTF8
Идентификатор кодека/Информация : UTF-8 Plain Text
Продолжительность : 2 ч. 7 м.
Битрейт : 47 бит/сек
Count of elements : 1619
Размер потока : 44,6 Кбайт (0%)
Заголовок : Full
Язык : English
Default : Нет
Forced : Нет

Меню
00:00:00.000 : en:00:00:00.000
00:09:08.506 : en:00:09:08.506
00:20:22.972 : en:00:20:22.972
00:31:14.706 : en:00:31:14.706
00:41:04.879 : en:00:41:04.879
00:52:21.805 : en:00:52:21.805
01:04:48.843 : en:01:04:48.843
01:21:12.743 : en:01:21:12.743
01:32:11.943 : en:01:32:11.943
01:42:57.671 : en:01:42:57.671
01:50:58.652 : en:01:50:58.652
02:04:04.812 : en:02:04:04.812


полная озвучка расширенной версии А.Матвеевым
AC3 | 48 KHz | 5.1 (Front: L С R Side: L R) + LFE | ~640 kbps

https://yadi.sk/d/Fhg5EBjPzrT5g

Релиз от:
   
Торрент: Зарегистрирован [01 дек 2016, 08:11] За каждые 2 ГБ. аплоада (сидирования) этого торрента начисляется бонус: 0.001 Скачать торрент
Скачать торрент
[ Размер 39.59 КБ / Просмотров 106 ]

Статус:
 
Приватный: Нет (DHT включён)
Размер: 7.75 ГБ (8 326 575 759 байт)
   
Аватара пользователя

Администратор
Администратор
 
Раздал: 2.33 ПБ
Скачал: 1.02 ПБ
Ратио: 2.281
Сообщения: 3722
Зарегистрирован: 07 май 2010, 17:29
Medals: 1
Лучший релиз за месяц (1)
  • Личное сообщение
  • ICQ

Вернуться в Фильмы 2016 (новинки)

Кто сейчас на конференции

Зарегистрированные пользователи: нет зарегистрированных пользователей

Ресурс не предоставляет электронные версии произведений, а занимается лишь коллекционированием и каталогизацией ссылок, присылаемых и публикуемых на форуме нашими читателями. Если вы являетесь правообладателем какого-либо представленного материала и не желаете чтобы ссылка на него находилась в нашем каталоге, свяжитесь с нами и мы незамедлительно удалим её. Файлы для обмена на трекере предоставлены пользователями сайта, и администрация не несёт ответственности за их содержание. Просьба не заливать файлы, защищенные авторскими правами, а также файлы нелегального содержания!
cron