Battlefield 1 (2016) WEBRip 720p | D скачать торрент

Киноновинки, новинки кинопроката, горячие новинки

Модератор: Модераторы видео

  • Статистика раздачи
Размер: 1.37 ГБ   |  Зарегистрирован: 25 окт 2016, 05:23   |   .torrent скачан: 1298 раз
Сидеров: 479  [ 0 байт/сек ]     Личеров: 52  [ 0 байт/сек ]  
Список файлов : Кто скачал : Раздают : Скачивают : Кто благодарил : История : Не раздающие : Запрашивали сидеров : Внешние трекеры 
  

Battlefield 1 (2016) WEBRip 720p | D

Сообщение Админ » 25 окт 2016, 05:23

Оригинальное название: Battlefield 1
Год выпуска: 2016 г.
Разработчик игры: EA Digital Illusions CE (Швеция)
Создатель видео: GamingWalkDi
Жанр: Игрофильм
Продолжительность: 01:46:33

Перевод: Профессиональный (дублированный) [EA Russia]
Субтитры: Русский хардсаб [Диалоги, экранные надписи и тп.]

Режиссер: Ларс Густафссон

В ролях: Антонио Алварез, Джефф Берг, Марк Боннар, Марк Холден, Майкл Джибсон, Джек Лауден, Питер О'Брайан и др.

Описание:
Battlefield 1 погружает нас в короткие отрывки из жизни пятерых совершенно разных героев Первой Мировой на протяжение нескольких последовательных миссий. Водитель танка, пилот самолета, штурмовик в тяжелой броне, посыльный и, наконец, воин пустыни. Им предстоит вступить в сражения в самых масштабных битвах, которые развиваются как на улицах городов, так и на обширных просторах итальянских Альп и аравийских песчаных дюн. Станьте свидетелем зарождения современной войны, разрушения старого мира и появления нового.

Дополнительная информация:
Данное видео позиционируется как ИГРОФИЛЬМ (без комментариев). В игрофильме присутствуют все основные сюжетные катсцены + урезанный геймплей (только геймплей, который делает игрофильм цельным и сцены плавно перетекающие из геймплея в катсцену).



Качество: WEBRip 720p
Формат: MP4
Видео: MPEG-4 AVC Video (H.264) / 1280х720 / 1709 kbps / 29.970 fps
Аудио: AAC, 2 channels, 44.1 kHz, 128 kbps

General
Complete name : Battlefield.1.2016.D.WEBRip.720p.mp4
Format : MPEG-4
Format profile : Base Media / Version 2
Codec ID : mp42
File size : 1.37 GiB
Duration : 1h 46mn
Overall bit rate mode : Variable
Overall bit rate : 1 838 Kbps
Encoded date : UTC 2016-10-22 22:43:33
Tagged date : UTC 2016-10-22 22:43:33
gsst : 0
gstd : 6393544

Video
ID : 1
Format : AVC
Format/Info : Advanced Video Codec
Format profile : [email protected]
Format settings, CABAC : Yes
Format settings, ReFrames : 3 frames
Codec ID : avc1
Codec ID/Info : Advanced Video Coding
Duration : 1h 46mn
Bit rate : 1 709 Kbps
Width : 1 280 pixels
Height : 720 pixels
Display aspect ratio : 16:9
Frame rate mode : Constant
Frame rate : 29.970 fps
Color space : YUV
Chroma subsampling : 4:2:0
Bit depth : 8 bits
Scan type : Progressive
Bits/(Pixel*Frame) : 0.062
Stream size : 1.27 GiB (93%)
Title : ISO Media file produced by Google Inc.
Encoded date : UTC 2016-10-22 22:43:33
Tagged date : UTC 2016-10-22 22:43:33
Color primaries : BT.709
Transfer characteristics : BT.709
Matrix coefficients : BT.709
Color range : Limited

Audio
ID : 2
Format : AAC
Format/Info : Advanced Audio Codec
Format profile : LC
Codec ID : 40
Duration : 1h 46mn
Bit rate mode : Variable
Bit rate : 126 Kbps
Channel(s) : 2 channels
Channel positions : Front: L R
Sampling rate : 44.1 KHz
Compression mode : Lossy
Stream size : 95.7 MiB (7%)
Title : ISO Media file produced by Google Inc.
Encoded date : UTC 2016-10-22 22:43:33
Tagged date : UTC 2016-10-22 22:43:33




   
Торрент: Зарегистрирован [25 окт 2016, 05:23] Скачать торрент
Скачать торрент
[ Размер 14.33 КБ / Просмотров 146 ]

Статус:
 
Приватный: Нет (DHT включён)
Размер: 1.37 ГБ (1 469 058 875 байт)
   
Аватара пользователя

Администратор
Администратор
 
Раздал: 2.33 ПБ
Скачал: 1.02 ПБ
Ратио: 2.281
Сообщения: 3722
Зарегистрирован: 07 май 2010, 17:29
Medals: 1
Лучший релиз за месяц (1)
  • Личное сообщение
  • ICQ

  • Похожие торренты
    Ответы
    Просмотры
    Последнее сообщение

Вернуться в Фильмы 2016 (новинки)

Кто сейчас на конференции

Зарегистрированные пользователи: нет зарегистрированных пользователей

Ресурс не предоставляет электронные версии произведений, а занимается лишь коллекционированием и каталогизацией ссылок, присылаемых и публикуемых на форуме нашими читателями. Если вы являетесь правообладателем какого-либо представленного материала и не желаете чтобы ссылка на него находилась в нашем каталоге, свяжитесь с нами и мы незамедлительно удалим её. Файлы для обмена на трекере предоставлены пользователями сайта, и администрация не несёт ответственности за их содержание. Просьба не заливать файлы, защищенные авторскими правами, а также файлы нелегального содержания!
cron