Расхитители времени / Налётчики во времени / Time Raiders / Dao Mu Bi Ji (2016) WEB-DL 1080p | L2 скачать торрент

Киноновинки, новинки кинопроката, горячие новинки

Модератор: Модераторы видео

  • Статистика раздачи
Размер: 3.15 ГБ   |  Зарегистрирован: 24 окт 2016, 04:18   |   .torrent скачан: 2219 раз
Сидеров: 122  [ 0 байт/сек ]     Личеров: 5  [ 0 байт/сек ]  
Список файлов : Кто скачал : Раздают : Скачивают : Кто благодарил : История : Не раздающие : Запрашивали сидеров : Внешние трекеры 
  

Расхитители времени / Налётчики во времени / Time Raiders / Dao Mu Bi Ji (2016) WEB-DL 1080p | L2

Сообщение Админ » 24 окт 2016, 04:18

Информация о фильме
Название: Расхитители времени / Налётчики во времени
Оригинальное название: Time Raiders / Dao Mu Bi Ji
Год выхода: 2016
Жанр: мистика, приключения, фэнтези, экшн
Режиссер: Дэниел Ли
В ролях: Цзин Божань, Лухан, Ван Цзинчунь, Сандра Ма, Чжан Боюй, Джек Ту, Филип Кюн, Канин Нго, Фан Сюйши, Сэмми Хун, Малика Шерават, Ванни Корбеллини

О фильме: «Девять Семей» — тайное общество расхитителей гробниц, промышляющих черной археологией на протяжении многих столетий. Три семьи — аристократы и коллекционеры, три — торговцы и посредники, три — мастера кайла и лопаты, способные проникнуть в любой схрон.
ВУ Се, молодой наследник торговой династии У, с детства был очарован древними артефактами. Парень мечтал о приключениях, но воспитавший его дядя Саньшэн запретил ему участвовать в авантюрных поездках, полностью оставив на его попечение семейную лавку. Однажды в руки У Се попадает ключ к гробнице древнего мастера Железной Маски. Из его последних записок герой узнает местоположение в пустыне Гоби древнего города мифической Змеиной Царицы из сказочной страны Тамуто. Если верить легендам, царица постигла секрет вечной жизни. Будучи преданной, она обещала вернуться через 3000 лет, отомстить человечеству и покорить мир. И, кажется, это случится уже на следующей неделе.



Страна: Китай
Продолжительность: 02:03:41
Перевод: Любительский (двухголосый закадровый) [Studio Victory-Films]

Файл
Качество: WEB-DL 1080p
Формат: MKV
Видео: AVC, 3461 Kb/s, 1920x800
Звук: AC3, 192 Kb/s (2 ch)
Субтитры: Chinese, English (вшитые неотключаемые)



Релиз от:
Format : Matroska
Format version : Version 4 / Version 2
File size : 3.15 GiB
Duration : 2 h 3 min
Overall bit rate : 3 647 kb/s
Movie name : Rip by basma4i
Encoded date : UTC 2016-10-23 03:28:40
Writing application : mkvmerge v9.3.1 ('Mask Machine') 64bit
Writing library : libebml v1.3.4 + libmatroska v1.4.5

Video
ID : 1
Format : AVC
Format/Info : Advanced Video Codec
Format profile : [email protected]
Format settings, CABAC : Yes
Format settings, ReFrames : 12 frames
Codec ID : V_MPEG4/ISO/AVC
Duration : 2 h 3 min
Bit rate : 3 461 kb/s
Width : 1 920 pixels
Height : 800 pixels
Display aspect ratio : 2.40:1
Frame rate mode : Constant
Frame rate : 24.000 FPS
Color space : YUV
Chroma subsampling : 4:2:0
Bit depth : 8 bits
Scan type : Progressive
Bits/(Pixel*Frame) : 0.094
Stream size : 2.98 GiB (95%)
Language : English
Default : Yes
Forced : No

Audio
ID : 2
Format : AC-3
Format/Info : Audio Coding 3
Mode extension : CM (complete main)
Format settings, Endianness : Big
Codec ID : A_AC3
Duration : 2 h 3 min
Bit rate mode : Constant
Bit rate : 192 kb/s
Channel(s) : 2 channels
Channel positions : Front: L R
Sampling rate : 44.1 kHz
Frame rate : 28.711 FPS (1536 spf)
Compression mode : Lossy
Stream size : 170 MiB (5%)
Title : Studio Victory-Films
Language : Russian
Default : Yes
Forced : No
   
Торрент: Зарегистрирован [24 окт 2016, 04:18] Скачать торрент
Скачать торрент
[ Размер 16.63 КБ / Просмотров 71 ]

Статус:
 
Приватный: Нет (DHT включён)
Размер: 3.15 ГБ (3 383 375 857 байт)
   
Аватара пользователя

Администратор
Администратор
 
Раздал: 2.33 ПБ
Скачал: 1.02 ПБ
Ратио: 2.281
Сообщения: 3722
Зарегистрирован: 07 май 2010, 17:29
Medals: 1
Лучший релиз за месяц (1)
  • Личное сообщение
  • ICQ

Вернуться в Фильмы 2016 (новинки)

Кто сейчас на конференции

Зарегистрированные пользователи: нет зарегистрированных пользователей

cron
Ресурс не предоставляет электронные версии произведений, а занимается лишь коллекционированием и каталогизацией ссылок, присылаемых и публикуемых на форуме нашими читателями. Если вы являетесь правообладателем какого-либо представленного материала и не желаете чтобы ссылка на него находилась в нашем каталоге, свяжитесь с нами и мы незамедлительно удалим её. Файлы для обмена на трекере предоставлены пользователями сайта, и администрация не несёт ответственности за их содержание. Просьба не заливать файлы, защищенные авторскими правами, а также файлы нелегального содержания!
cron