Стартрек: Бесконечность / Star Trek Beyond (2016) WEB-DLRip 1080р | Line скачать торрент

Киноновинки, новинки кинопроката, горячие новинки

Модератор: Модераторы видео

  • Статистика раздачи
Размер: 4.27 ГБ   |  Зарегистрирован: 10 окт 2016, 01:53   |   .torrent скачан: 44620 раз
Сидеров: 12077  [ 0 байт/сек ]     Личеров: 565  [ 0 байт/сек ]  
Список файлов : Кто скачал : Раздают : Скачивают : Кто благодарил : История : Не раздающие : Запрашивали сидеров : Внешние трекеры 
  

Стартрек: Бесконечность / Star Trek Beyond (2016) WEB-DLRip 1080р | Line

Сообщение Админ » 10 окт 2016, 01:53

Стартрек: Бесконечность / Star Trek Beyond

Страна: США
Производство: Paramount Pictures, Bad Robot, Perfect Storm Entertainment, Skydance Productions, Sneaky Shark
Год выпуска: 2016
Жанр: фантастика, боевик, триллер, приключения
Продолжительность: 02:02:19

Режиссер: Джастин Лин
Авторы сценария: Саймон Пегг, Даг Джанг, Джин Родденберри

В ролях: Крис Пайн, Закари Куинто, Саймон Пегг, Карл Урбан, Зои Салдана, Джон Чо, Антон Ельчин, Идрис Эльба, София Бутелла, Джо Таслим

Описание: Спустя 2 года после начала пятилетней миссии, экипаж звёздного корабля «Энтерпрайз», во главе с капитаном Джеймсом Т. Кирком, были атакованы могущественной и опасной волной неизвестных пришельцев, которые уничтожают корабль, оставляя их без всего на новой неизведанной планете, где они оказываются в конфликте с новым безжалостным врагом...



Перевод: Профессиональный (полное дублирование) | чистый звук
Субтитры: нет


Качество: WEB-DLRip 1080р
Формат: МКV
Видео кодек: AVC
Аудио кодек: АС3
Видео: 1912x800 (2.40:1), 23.976 fps, MPEG-4 AVC ~4 510 kbps avg
Аудио: 48.0 kHz, AC3 Dolby Digital, 2/0 (L,R) ch, ~384 kbps

Бюджет: $185 000 000
Дата премьеры (мир): 20 июля 2016
Дата премьеры (РФ): 21 июля 2016, «Централ Партнершип»



General
Unique ID : 252666983217384227942522217464044602531 (0xBE15E4119AF172EEA859BBDC89BA44A3)
Complete name : Starrr.Trekkkk.BeskoneCHnost.2O16.D.WEB-DL.1O8Op_KOSHARA.mkv
Format : Matroska
Format version : Version 2
File size : 4.27 GiB
Duration : 2h 2mn
Overall bit rate mode : Variable
Overall bit rate : 4 994 Kbps
Encoded date : UTC 2016-10-07 20:30:24
Writing application : mkvmerge v8.3.0 ('Over the Horizon') 64bit
Writing library : libebml v1.3.1 + libmatroska v1.4.2
DURATION : 02:02:19.392000000
NUMBER_OF_FRAMES : 229356
NUMBER_OF_BYTES : 352290816
_STATISTICS_WRITING_APP : mkvmerge v8.3.0 ('Over the Horizon') 64bit
_STATISTICS_WRITING_DATE_UTC : 2016-10-07 20:30:24
_STATISTICS_TAGS : BPS DURATION NUMBER_OF_FRAMES NUMBER_OF_BYTES
Video #1
ID : 1
Format : AVC
Format/Info : Advanced Video Codec
Format profile : [email protected]
Format settings, CABAC : Yes
Format settings, ReFrames : 5 frames
Codec ID : V_MPEG4/ISO/AVC
Duration : 2h 2mn
Bit rate mode : Variable
Bit rate : 4 510 Kbps
Maximum bit rate : 5 000 Kbps
Width : 1 912 pixels
Height : 800 pixels
Display aspect ratio : 2.40:1
Frame rate mode : Constant
Frame rate : 23.976 fps
Standard : Component
Color space : YUV
Chroma subsampling : 4:2:0
Bit depth : 8 bits
Scan type : Progressive
Bits/(Pixel*Frame) : 0.123
Stream size : 3.85 GiB (90%)
Language : English
Default : Yes
Forced : No
Color primaries : BT.709
Transfer characteristics : BT.709
Matrix coefficients : BT.709
Audio #2
ID : 2
Format : AC-3
Format/Info : Audio Coding 3
Mode extension : CM (complete main)
Format settings, Endianness : Big
Codec ID : A_AC3
Duration : 2h 2mn
Bit rate mode : Constant
Bit rate : 384 Kbps
Channel(s) : 2 channels
Channel positions : Front: L R
Sampling rate : 48.0 KHz
Bit depth : 16 bits
Compression mode : Lossy
Stream size : 336 MiB (8%)
Language : Russian
Default : Yes
Forced : No
   
Торрент: Зарегистрирован [10 окт 2016, 01:53] Скачать торрент
Скачать торрент
[ Размер 22.06 КБ / Просмотров 115 ]

Статус:
 
Приватный: Нет (DHT включён)
Размер: 4.27 ГБ (4 581 468 318 байт)
   
Аватара пользователя

Администратор
Администратор
 
Раздал: 2.33 ПБ
Скачал: 1.02 ПБ
Ратио: 2.281
Сообщения: 3722
Зарегистрирован: 07 май 2010, 17:29
Medals: 1
Лучший релиз за месяц (1)
  • Личное сообщение
  • ICQ

  • Похожие торренты
    Ответы
    Просмотры
    Последнее сообщение

Вернуться в Фильмы 2016 (новинки)

Кто сейчас на конференции

Зарегистрированные пользователи: нет зарегистрированных пользователей

Ресурс не предоставляет электронные версии произведений, а занимается лишь коллекционированием и каталогизацией ссылок, присылаемых и публикуемых на форуме нашими читателями. Если вы являетесь правообладателем какого-либо представленного материала и не желаете чтобы ссылка на него находилась в нашем каталоге, свяжитесь с нами и мы незамедлительно удалим её. Файлы для обмена на трекере предоставлены пользователями сайта, и администрация не несёт ответственности за их содержание. Просьба не заливать файлы, защищенные авторскими правами, а также файлы нелегального содержания!
cron