Фантазм 5 / Phantasm: Ravager (2016) WEB-DLRip 1080р | L1 скачать торрент

Киноновинки, новинки кинопроката, горячие новинки

Модератор: Модераторы видео

  • Статистика раздачи
Размер: 3.55 ГБ   |  Зарегистрирован: 06 окт 2016, 03:41   |   .torrent скачан: 3691 раз
Сидеров: 1562  [ 0 байт/сек ]     Личеров: 283  [ 0 байт/сек ]  
Список файлов : Кто скачал : Раздают : Скачивают : Кто благодарил : История : Не раздающие : Запрашивали сидеров : Внешние трекеры 
  

Фантазм 5 / Phantasm: Ravager (2016) WEB-DLRip 1080р | L1

Сообщение Админ » 06 окт 2016, 03:41

Фантазм 5 / Phantasm: Ravager

Страна: США
Производство: Silver Sphere Corporation
Год выпуска: 2016
Жанр: Ужасы, фэнтези
Продолжительность: 01:25:28

Режиссер: Дэвид Хартман
Авторы сценария: Дон Коскарелли, Дэвид Хартман

В ролях: Рэджи Бэннистер, А. Майкл Болдуин, Кэти Лестер, Билл Торнбери, Энгус Скримм, Дэниэл Швайгер, Дэниэл Робак, Джей Олива

Описание: Заключительная серия Фантазма, в которой Реджи и Майк сомневаются, что всё, что с ними происходило, было на самом деле и всё это просто игры разума. Но как это может происходить у всех в голове одновременно..?



Перевод: Любительский (одноголосый, закадровый) | Xixidok
Субтитры: нет


Качество: WEB-DLRip 1080р
Формат: МКV
Видео кодек: AVC
Аудио кодек: АС3
Видео: 1920x1080 (16:9), 23.976 fps, MPEG-4 AVC ~5 062 kbps avg
Аудио №1: 48 kHz, AC3 Dolby Digital, 3/2 (L,C,R,l,r) + LFE ch, ~384 kbps | RUS
Аудио №2: 48 kHz, AC3 Dolby Digital, 3/2 (L,C,R,l,r) + LFE ch, ~384 kbps | ENG

Дата премьеры (мир): 25 сентября 2016



General
Уникальный идентификатор : 198088712331080664087823723533785279644 (0x95067F8EC6E7CA53BD4722CC2A62AC9C)
Полное имя : Phantasm.Ravager.2016.1080p.WEB-DL.H264.mkv
Формат : Matroska
Версия формата : Version 4 / Version 2
Размер файла : 3,55 Гбайт
Продолжительность : 1 ч. 25 м.
Общий поток : 5948 Кбит/сек
Дата кодирования : UTC 2016-10-05 08:50:09
Программа кодирования : mkvmerge v6.9.1 ('Blue Panther') 64bit built on Apr 18 2014 18:23:38
Библиотека кодирования : libebml v1.3.0 + libmatroska v1.4.1

Видео
Идентификатор : 1
Формат : AVC
Формат/Информация : Advanced Video Codec
Профиль формата : [email protected]
Параметр CABAC формата : Да
Параметр ReFrames формата : 4 кадра
Идентификатор кодека : V_MPEG4/ISO/AVC
Продолжительность : 1 ч. 25 м.
Битрейт : 5062 Кбит/сек
Ширина : 1920 пикселей
Высота : 1080 пикселей
Соотношение сторон : 16:9
Режим частоты кадров : Постоянный
Частота кадров : 23,976 кадра/сек
Цветовое пространство : YUV
Субдискретизация насыщенности : 4:2:0
Битовая глубина : 8 бит
Тип развёртки : Прогрессивная
Бит/(Пиксели*Кадры) : 0.102
Размер потока : 3,02 Гбайт (85%)
Язык : English
Default : Да
Forced : Нет
Цветовой диапазон : Limited
Основные цвета : BT.709
Характеристики трансфера : BT.709
Коэффициенты матрицы : BT.709

Аудио #1
Идентификатор : 2
Формат : AC-3
Формат/Информация : Audio Coding 3
Расширение режима : CM (complete main)
Параметр Endianness формата : Big
Идентификатор кодека : A_AC3
Продолжительность : 1 ч. 25 м.
Вид битрейта : Постоянный
Битрейт : 384 Кбит/сек
Каналы : 6 каналов
Расположение каналов : Front: L C R, Side: L R, LFE
Частота : 48,0 КГц
Частота кадров : 31,250 кадров/сек (1536 spf)
Метод сжатия : С потерями
Размер потока : 235 Мбайт (6%)
Заголовок : Xixidoktor DD5.1
Язык : Russian
Default : Да
Forced : Нет

Аудио #2
Идентификатор : 3
Формат : AC-3
Формат/Информация : Audio Coding 3
Расширение режима : CM (complete main)
Параметр Endianness формата : Big
Идентификатор кодека : A_AC3
Продолжительность : 1 ч. 25 м.
Вид битрейта : Постоянный
Битрейт : 384 Кбит/сек
Каналы : 6 каналов
Расположение каналов : Front: L C R, Side: L R, LFE
Частота : 48,0 КГц
Частота кадров : 31,250 кадров/сек (1536 spf)
Метод сжатия : С потерями
Размер потока : 235 Мбайт (6%)
Заголовок : original
Язык : English
Default : Нет
Forced : Нет

Меню
00:00:00.000 : en:1
00:07:56.518 : en:2
00:16:56.432 : en:3
00:23:19.481 : en:4
00:31:53.912 : en:5
00:39:34.163 : en:6
00:50:44.416 : en:7
01:01:30.019 : en:8
01:10:00.487 : en:9
01:17:07.121 : en:10
   
Торрент: Зарегистрирован [06 окт 2016, 03:41] Скачать торрент
Скачать торрент
[ Размер 18.58 КБ / Просмотров 55 ]

Статус:
 
Приватный: Нет (DHT включён)
Размер: 3.55 ГБ (3 812 946 771 байт)
   
Аватара пользователя

Администратор
Администратор
 
Раздал: 2.33 ПБ
Скачал: 1.02 ПБ
Ратио: 2.281
Сообщения: 3723
Зарегистрирован: 07 май 2010, 17:29
Medals: 1
Лучший релиз за месяц (1)
  • Личное сообщение
  • ICQ

  • Похожие торренты
    Ответы
    Просмотры
    Последнее сообщение

Вернуться в Фильмы 2016 (новинки)

Кто сейчас на конференции

Зарегистрированные пользователи: нет зарегистрированных пользователей

Ресурс не предоставляет электронные версии произведений, а занимается лишь коллекционированием и каталогизацией ссылок, присылаемых и публикуемых на форуме нашими читателями. Если вы являетесь правообладателем какого-либо представленного материала и не желаете чтобы ссылка на него находилась в нашем каталоге, свяжитесь с нами и мы незамедлительно удалим её. Файлы для обмена на трекере предоставлены пользователями сайта, и администрация не несёт ответственности за их содержание. Просьба не заливать файлы, защищенные авторскими правами, а также файлы нелегального содержания!
cron