Барс и Лялька (2014) WEB-DL [H.264/1080p-LQ] скачать торрент

Русская классика кино, Rip, Рипы, Отечественные фильмы

Модератор: Модераторы видео

  • Статистика раздачи
Размер: 2.8 ГБ   |  Зарегистрирован: 22 фев 2016, 04:56   |   .torrent скачан: 2 раз
Сидеров: 107  [ 0 байт/сек ]     Личеров: 5  [ 0 байт/сек ]  
Список файлов : Кто скачал : Раздают : Скачивают : Кто благодарил : История : Не раздающие : Запрашивали сидеров : Внешние трекеры 
  

Барс и Лялька (2014) WEB-DL [H.264/1080p-LQ]

Сообщение Админ » 22 фев 2016, 04:56

Барс и Лялька (2014) WEB-DL [H.264/1080p-LQ]

Производство: Россия, НТВ-Кино
Жанр: Детектив

Режиссер: Николай Щербаков
Актеры: Владимир Епифанцев, Дмитрий Шевченко, Татьяна Казючиц, Евгений Березовский, Иван Шибанов, Михаил Павлик, Данила Якушев, Елена Бирюкова и др.

Описание:
Писательница Арина находится в творческом кризисе. Она стремится к славе и успеху, но ее исторические романы не востребованы. Арина рассталась с мужчиной, оказалась без крыши над головой и буквально выпросила работу у своего издателя. Да, это тема которая ей совсем не по нраву — ее отправляют писать книгу о бывшем офицере спецназа по прозвищу Барс. Но выбирать не приходится. Барс не слишком рад визиту писательницы. Он не слишком гостеприимен, и даже груб, называет ее просто «Лялькой» и не церемонится. И что в нем героического — пытается понять Арина, когда смотрит на Барса, который копает ямы для туалетов местным мужикам…



Продолжительность: 01:35:44
Качество видео: WEB-DL

Видео: AVC/H.264, 1920x1080, ~4000 Кбит/сек
Аудио: AC3, 2 ch, 192 Кбит/с, CBR
Код:
Код: Выделить всё
Общее
Уникальный идентификатор                 : 191086403446297824774649255535076399006 (0x8FC1E7132B4F9CFC90304A638507579E)
Полное имя                               : D:\МОЯ\torrent\Bars.i.Lyalka.2014.WEBDL.1080p.mkv
Формат                                   : Matroska
Версия формата                           : Version 4 / Version 2
Размер файла                             : 2,80 Гбайт
Продолжительность                        : 1 ч. 35 м.
Общий поток                              : 4193 Кбит/сек
Дата кодирования                         : UTC 2016-02-18 12:52:48
Программа кодирования                    : mkvmerge v8.2.0 ('World of Adventure') 64bit
Библиотека кодирования                   : libebml v1.3.1 + libmatroska v1.4.2

Видео
Идентификатор                            : 1
Формат                                   : AVC
Формат/Информация                        : Advanced Video Codec
Профиль формата                          : [email protected]
Параметр CABAC формата                   : Да
Параметр ReFrames формата                : 3 кадра
Идентификатор кодека                     : V_MPEG4/ISO/AVC
Продолжительность                        : 1 ч. 35 м.
Битрейт                                  : 4000 Кбит/сек
Ширина                                   : 1920 пикселей
Высота                                   : 1080 пикселей
Соотношение сторон                       : 16:9
Режим частоты кадров                     : Постоянный
Частота кадров                           : 25,000 кадров/сек
Цветовое пространство                    : YUV
Субдискретизация насыщенности            : 4:2:0
Битовая глубина                          : 8 бит
Тип развёртки                            : Прогрессивная
Бит/(Пиксели*Кадры)                      : 0.077
Размер потока                            : 2,67 Гбайт (95%)
Библиотека кодирования                   : x264 core 142 r2389 956c8d8
Настройки программы                      : cabac=1 / ref=3 / deblock=1:0:0 / analyse=0x3:0x133 / me=umh / subme=7 / psy=1 / psy_rd=1.00:0.00 / mixed_ref=1 / me_range=32 / chroma_me=1 / trellis=2 / 8x8dct=1 / cqm=0 / deadzone=21,11 / fast_pskip=1 / chroma_qp_offset=-2 / threads=12 / lookahead_threads=2 / sliced_threads=0 / nr=0 / decimate=1 / interlaced=0 / bluray_compat=0 / constrained_intra=0 / bframes=0 / weightp=0 / keyint=75 / keyint_min=26 / scenecut=40 / intra_refresh=0 / rc_lookahead=50 / rc=2pass / mbtree=0 / bitrate=4000 / ratetol=1.0 / qcomp=0.20 / qpmin=10 / qpmax=51 / qpstep=4 / cplxblur=20.0 / qblur=0.5 / vbv_maxrate=5000 / vbv_bufsize=5000 / nal_hrd=none / filler=0 / ip_ratio=1.40 / aq=1:1.00
Default                                  : Да
Forced                                   : Нет
Цветовой диапазон                        : Limited
Основные цвета                           : BT.709
Характеристики трансфера                 : BT.709
Коэффициенты матрицы                     : BT.709

Аудио
Идентификатор                            : 2
Формат                                   : AC-3
Формат/Информация                        : Audio Coding 3
Расширение режима                        : CM (complete main)
Параметр Endianness формата              : Big
Идентификатор кодека                     : A_AC3
Продолжительность                        : 1 ч. 35 м.
Вид битрейта                             : Постоянный
Битрейт                                  : 192 Кбит/сек
Каналы                                   : 2 канала
Расположение каналов                     : Front: L R
Частота                                  : 48,0 КГц
Частота кадров                           : 31,250 кадров/сек (1536 spf)
Метод сжатия                             : С потерями
Размер потока                            : 131 Мбайт (5%)
Default                                  : Да
Forced                                   : Нет

Скриншоты:

   
Торрент: Зарегистрирован [22 фев 2016, 04:56] Скачать торрент
Скачать торрент
[ Размер 28.94 КБ / Просмотров 157 ]

Статус:
 
Приватный: Нет (DHT включён)
Размер: 2.8 ГБ (3 010 763 625 байт)
   
Аватара пользователя

Администратор
Администратор
 
Раздал: 2.33 ПБ
Скачал: 1.02 ПБ
Ратио: 2.281
Сообщения: 3722
Зарегистрирован: 07 май 2010, 17:29
Medals: 1
Лучший релиз за месяц (1)
  • Личное сообщение
  • ICQ

Вернуться в Отечественные фильмы (Rip's)

Кто сейчас на конференции

Зарегистрированные пользователи: нет зарегистрированных пользователей

cron
Ресурс не предоставляет электронные версии произведений, а занимается лишь коллекционированием и каталогизацией ссылок, присылаемых и публикуемых на форуме нашими читателями. Если вы являетесь правообладателем какого-либо представленного материала и не желаете чтобы ссылка на него находилась в нашем каталоге, свяжитесь с нами и мы незамедлительно удалим её. Файлы для обмена на трекере предоставлены пользователями сайта, и администрация не несёт ответственности за их содержание. Просьба не заливать файлы, защищенные авторскими правами, а также файлы нелегального содержания!
cron