Баллада о доблестном рыцаре Айвенго (Сергей Тарасов) [1982, мелодрама, приключения, DVDRip] скачать торрент

Русская классика кино, Rip, Рипы, Отечественные фильмы

Модератор: Модераторы видео

  • Статистика раздачи
Размер: 1.42 ГБ   |  Зарегистрирован: 03 фев 2015, 17:08   |   .torrent скачан: 4 раз
Сидеров: 0  [ 0 байт/сек ]     Личеров: 0  [ 0 байт/сек ]  
Список файлов : Кто скачал : Раздают : Скачивают : Кто благодарил : История : Не раздающие : Запрашивали сидеров : Внешние трекеры 
  

Баллада о доблестном рыцаре Айвенго (Сергей Тарасов) [1982, мелодрама, приключения, DVDRip]

Сообщение Боцман » 03 фев 2015, 17:09

Баллада о доблестном рыцаре Айвенго


Жанр: мелодрама, приключения
Год выпуска: 1982
Продолжительность: 01:27:18

Режиссёр: Сергей Тарасов

В ролях: Тамара Акулова, Петерис Гаудиньш, Борис Химичев, Леонид Кулагин, Ромуальд Анцанс, Борис Хмельницкий, Юрий Смирнов, Александр Филиппенко, Витаутас Томкус, Альгимантас Масюлис, Майя Булгакова, Владимир Талашко, Марина Либакова-Ливанова, Сергей Тарасов


Айвенго – мужественный рыцарь из старинного рода. Одержав победу над врагом, смелый рыцарь преподносит своей возлюбленной Ребекке шарф, так и оставшись безызвестным. Влюбленность, преданность и открытость чувств храброго рыцаря поражает читателя.


Описание: По мотивам романа Вальтера Скотта «Айвенго».
"Баллада о доблестном рыцаре Айвенго" — это одна из величайших приключенческих историй всех времен. Рыцарь Айвенго возвращается с крестового похода и пытается восстановить свою честь, права на свое наследство и добиться руки своей возлюбленной.

Это историко-приключенческая сага о благородном рыцаре, который оказывается вовлеченным в яростную борьбу за английский трон между принцем Джоном и его братом королем Ричардом.

В фильме звучат четыре песни-баллады Владимира Высоцкого: «О вольных стрелках», «О любви», «О борьбе» и «О времени».

Доп. информация:



Качество видео: DVDRip
Формат видео: AVI
Видео: 688x416 (1.65:1), 25 fps, XviD build 64 ~1931 kbps avg, 0.27 bit/pixel
Аудио: 48 kHz, AC3 Dolby Digital, 3/2 (L,C,R,l,r) + LFE ch, ~384 kbps

Общее
Полное имя : D:\Torrent\Баллада о доблестном рыцаре Айвенго_1.46\Баллада о доблестном рыцаре Айвенго_1.46.avi
Формат : AVI
Формат/Информация : Audio Video Interleave
Размер файла : 1,42 Гбайт
Продолжительность : 1 ч. 27 м.
Общий поток : 2325 Кбит/сек
Программа кодирования : VirtualDubModRus 1.5.10.2 (build 2540/release)
Библиотека кодирования : VirtualDubMod build 2540/release

Видео
Идентификатор : 0
Формат : MPEG-4 Visual
Профиль формата : Advanced [email protected]
Параметр BVOP формата : 1
Параметр QPel формата : Нет
Параметр GMC формата : Без точки перехода
Параметр матрицы формата : Выборочная
Идентификатор кодека : XVID
Идентификатор кодека/Подсказка : XviD
Продолжительность : 1 ч. 27 м.
Битрейт : 1931 Кбит/сек
Ширина : 688 пикселей
Высота : 416 пикселей
Соотношение сторон : 1,654
Частота кадров : 25,000 кадров/сек
Цветовое пространство : YUV
Субдискретизация насыщенности : 4:2:0
Битовая глубина : 8 бит
Тип развёртки : Прогрессивная
Метод сжатия : С потерями
Бит/(Пиксели*Кадры) : 0.270
Размер потока : 1,18 Гбайт (83%)
Библиотека кодирования : XviD 64

Аудио
Идентификатор : 1
Формат : AC-3
Формат/Информация : Audio Coding 3
Расширение режима : CM (complete main)
Идентификатор кодека : 2000
Продолжительность : 1 ч. 27 м.
Вид битрейта : Постоянный
Битрейт : 384 Кбит/сек
Каналы : 6 каналов
Расположение каналов : Front: L C R, Side: L R, LFE
Частота : 48,0 КГц
Битовая глубина : 16 бит
Метод сжатия : С потерями
Размер потока : 240 Мбайт (17%)
Выравнивание : Разделение по промежуткам
Продолжительность промежутка : 40 мс. (1,00 видеокадр)
Время предзагрузки промежутка : 500 мс.
   
Торрент: Зарегистрирован [03 фев 2015, 17:08] Скачать торрент
Скачать торрент
[ Размер 14.71 КБ / Просмотров 104 ]

Статус:
 
Приватный: Нет (DHT включён)
Размер: 1.42 ГБ (1 522 483 200 байт)
   
Хочешь стать частью команды MZ-Tracker?
Запишись
ТУТ
Аватара пользователя

Убийца клавиатуры
Убийца клавиатуры
 
Раздал: 12.57 ГБ
Скачал: 907.51 ГБ
Ратио: 0.017
Сообщения: 4358
Фото: 292
Зарегистрирован: 19 июн 2008, 23:00
ТегиБаллада о доблестном рыцаре, Айвенго, скачать, фильм

  • Похожие торренты
    Ответы
    Просмотры
    Последнее сообщение

Вернуться в Отечественные фильмы (Rip's)

Кто сейчас на конференции

Зарегистрированные пользователи: нет зарегистрированных пользователей

cron
Ресурс не предоставляет электронные версии произведений, а занимается лишь коллекционированием и каталогизацией ссылок, присылаемых и публикуемых на форуме нашими читателями. Если вы являетесь правообладателем какого-либо представленного материала и не желаете чтобы ссылка на него находилась в нашем каталоге, свяжитесь с нами и мы незамедлительно удалим её. Файлы для обмена на трекере предоставлены пользователями сайта, и администрация не несёт ответственности за их содержание. Просьба не заливать файлы, защищенные авторскими правами, а также файлы нелегального содержания!
cron