Гидравлика (Евгений Серов) [2010, Россия, Драма, HDTVRip] скачать торрент

Русская классика кино, Rip, Рипы, Отечественные фильмы

Модератор: Модераторы видео

  • Статистика раздачи
Размер: 1.37 ГБ   |  Зарегистрирован: 01 фев 2015, 14:46   |   .torrent скачан: 14 раз
Сидеров: 24  [ 0 байт/сек ]     Личеров: 1  [ 0 байт/сек ]  
Список файлов : Кто скачал : Раздают : Скачивают : Кто благодарил : История : Не раздающие : Запрашивали сидеров : Внешние трекеры 
  

Гидравлика (Евгений Серов) [2010, Россия, Драма, HDTVRip]

Сообщение Фаромир брат » 01 фев 2015, 14:46

Гидравлика

Год выпуска: 2010
Производство: Россия, ЯрСинема
Жанр: Драма
Продолжительность: ~ 01:39:14
Субтитры: нет

Режиссёр: Евгений Серов

В ролях: Андрей Мерзликин, Юрий Ваксман, Андрей Кузичёв, Ирина Лачина

Описание: История о том, как однажды совершенное «маленькое» предательство, приводит к трагедии. За все в этой жизни приходит расплата, но и накопленная за годы злоба и жажда отомстить тоже чревата. Эта злоба может вернуться к тебе бумерангом, как гидравлический удар в физике. Трое однокурсников вместе учились в техническом институте, но на пятнадцать лет потеряли друг друга из виду. Спустя годы по стечению обстоятельств Сергей Самсонов и вор–щипач Аванс забираются в чужую квартиру. Эта квартира принадлежит бывшему другу – однокурснику Константину Чистову. Чистик когда-то предал Сэма, написав на него донос, из-за чего Сергея отчислили из института за неделю до защиты диплома. У Сэма, который волей судьбы оказывается в квартире Чистика, возникает план мести…



Качество: HDTVRip
Формат: AVI

Видео: 720x400 (1.80:1), 25 fps, XviD build 73 ~1764 kbps avg, 0.25 bit/pixel
Аудио: 48 kHz, AC3 Dolby Digital, 2/0 (L,R) ch, ~192 kbps

Сторонней рекламы нет!
Код: Выделить всё
Общее
Полное имя                       : H:\Gidravlika.2010.HDTVRip.Files-x.avi
Формат                           : AVI
Формат/Информация                : Audio Video Interleave
Размер файла                     : 1,37 Гбайт
Продолжительность                : 1 ч. 39 м.
Общий поток                      : 1967 Кбит/сек
Программа кодирования            : VirtualDubMod 1.5.10.3 | www.virtualdub-fr.org || (build 2550/release)
Библиотека кодирования           : VirtualDubMod build 2550/release

Видео
Идентификатор                    : 0
Формат                           : MPEG-4 Visual
Профиль формата                  : Advanced [email protected]
Параметр BVOP формата            : 1
Параметр QPel формата            : Нет
Параметр GMC формата             : Без точки перехода
Параметр матрицы формата         : Выборочная
Идентификатор кодека             : XVID
Идентификатор кодека/Подсказка   : XviD
Продолжительность                : 1 ч. 39 м.
Битрейт                          : 1765 Кбит/сек
Ширина                           : 720 пикс.
Высота                           : 400 пикс.
Соотношение сторон               : 16:9
Частота кадров                   : 25,000 кадр/сек
Цветовое пространство            : YUV
Подвыборка цветности             : 4:2:0
Битовая глубина                  : 8 бит
Тип развёртки                    : Прогрессивная
Метод сжатия                     : С потерями
Бит/(Пиксели*Кадры)              : 0.245
Размер потока                    : 1,23 Гбайт (90%)
Библиотека кодирования           : XviD 73

Аудио
Идентификатор                    : 1
Формат                           : AC-3
Формат/Информация                : Audio Coding 3
Расширение режима                : CM (complete main)
Идентификатор кодека             : 2000
Продолжительность                : 1 ч. 39 м.
Вид битрейта                     : Постоянный
Битрейт                          : 192 Кбит/сек
Каналы                           : 2 канала
Расположение каналов             : Front: L R
Частота                          : 48,0 КГц
Битовая глубина                  : 16 бит
Метод сжатия                     : С потерями
Размер потока                    : 137 Мбайт (10%)
Выравнивание                     : Разделение по промежуткам
Продолжительность промежутка     : 40  мс. (1,00 видеокадр)
Время предзагрузки промежутка    : 500 ms

   
Торрент: Зарегистрирован [01 фев 2015, 14:46] Скачать торрент
Скачать торрент
[ Размер 14.2 КБ / Просмотров 99 ]

Статус:
 
Приватный: Нет (DHT включён)
Размер: 1.37 ГБ (1 470 412 800 байт)
   
Аватара пользователя

Супермодератор
Супермодератор
 
Раздал: 24.34 ТБ
Скачал: 1.72 ТБ
Ратио: 20.884
Сообщения: 7936
Фото: 127
Зарегистрирован: 26 ноя 2012, 17:20
Medals: 2
1000 раздач! (1) Меценат №2 (1)

Вернуться в Отечественные фильмы (Rip's)

Кто сейчас на конференции

Зарегистрированные пользователи: нет зарегистрированных пользователей

cron
Ресурс не предоставляет электронные версии произведений, а занимается лишь коллекционированием и каталогизацией ссылок, присылаемых и публикуемых на форуме нашими читателями. Если вы являетесь правообладателем какого-либо представленного материала и не желаете чтобы ссылка на него находилась в нашем каталоге, свяжитесь с нами и мы незамедлительно удалим её. Файлы для обмена на трекере предоставлены пользователями сайта, и администрация не несёт ответственности за их содержание. Просьба не заливать файлы, защищенные авторскими правами, а также файлы нелегального содержания!
cron