Экскурсантка (Аудриус Юзенас) [2013, Исторический, драма, DVDRip] скачать торрент

Русская классика кино, Rip, Рипы, Отечественные фильмы

Модератор: Модераторы видео

  • Статистика раздачи
Размер: 1.45 ГБ   |  Зарегистрирован: 01 фев 2015, 14:24   |   .torrent скачан: 15 раз
Сидеров: 7  [ 0 байт/сек ]     Личеров: 0  [ 0 байт/сек ]  
Список файлов : Кто скачал : Раздают : Скачивают : Кто благодарил : История : Не раздающие : Запрашивали сидеров : Внешние трекеры 
  

Экскурсантка (Аудриус Юзенас) [2013, Исторический, драма, DVDRip]

Сообщение Фаромир брат » 01 фев 2015, 14:24

Экскурсантка / Ekskursantė

Жанр: Исторический / Драма
Год выпуска: 2013
Продолжительность: 01:49:58
Режиссёр: Аудриус Юзeнас
В ролях: Сергей Гармаш, Дмитрий Готсдинер, Аирида Гинтаутаите, Алёна Ивченко, Анастасия Марценкаите, Ксения Раппопорт, Раиса Рязанова, Дариус Мескаускас, Егле Микулионыте

Описание: Трагическая история литовской Дюймовочки — девочки Марии, сосланной из своей деревни с родителями в Сибирь, оставшейся по дороге сиротой, но сумевшей пешком, через всю Россию, вернуться домой.



Cубтитры: русские, литовскиe (вшитыe)
Оригинальная аудиодорожка: русский, литовский
Качество видео: DVDRip
Формат видео: AVI
Видео: MPEG4, XviD, 720x384 (1.875), 25.000 fps, 1 490 Kbps (0.216 bit/pixel)
Аудио: Russian,Lithuanian AC-3, 48.0 KHz, 6 ch, 384 Kbps, CBR
{hide=file:} Video
ID : 0
Format : MPEG-4 Visual
Format profile : [email protected]
Format settings, BVOP : No
Format settings, QPel : No
Format settings, GMC : No warppoints
Format settings, Matrix : Default (H.263)
Codec ID : XVID
Codec ID/Hint : XviD
Duration : 1h 50mn
Bit rate : 1 171 Kbps
Width : 720 pixels
Height : 384 pixels
Display aspect ratio : 16:9
Frame rate : 23.976 fps
Color space : YUV
Chroma subsampling : 4:2:0
Bit depth : 8 bits
Scan type : Progressive
Compression mode : Lossy
Bits/(Pixel*Frame) : 0.170
Stream size : 794 MiB (85%)
Writing library : Lavc56.13.100

Audio
ID : 1
Format : MPEG Audio
Format version : Version 1
Format profile : Layer 3
Mode : Joint stereo
Codec ID : 55
Codec ID/Hint : MP3
Duration : 1h 50mn
Bit rate mode : Constant
Bit rate : 384 Kbps
Channel(s) : 6 channels
Sampling rate : 48.0 KHz
Compression mode : Lossy
Stream size : 130 MiB (14%)
Alignment : Aligned on interleaves
Interleave, duration : 24 ms (0.58 video frame)
Interleave, preload duration : 504 ms
Writing library : LAME

   
Торрент: Зарегистрирован [01 фев 2015, 14:24] Скачать торрент
Скачать торрент
[ Размер 14.97 КБ / Просмотров 87 ]

Статус:
 
Приватный: Нет (DHT включён)
Размер: 1.45 ГБ (1 553 418 240 байт)
   
Аватара пользователя

Супермодератор
Супермодератор
 
Раздал: 24.34 ТБ
Скачал: 1.72 ТБ
Ратио: 20.884
Сообщения: 7936
Фото: 127
Зарегистрирован: 26 ноя 2012, 17:20
Medals: 2
1000 раздач! (1) Меценат №2 (1)

  • Похожие торренты
    Ответы
    Просмотры
    Последнее сообщение

Вернуться в Отечественные фильмы (Rip's)

Кто сейчас на конференции

Зарегистрированные пользователи: нет зарегистрированных пользователей

Ресурс не предоставляет электронные версии произведений, а занимается лишь коллекционированием и каталогизацией ссылок, присылаемых и публикуемых на форуме нашими читателями. Если вы являетесь правообладателем какого-либо представленного материала и не желаете чтобы ссылка на него находилась в нашем каталоге, свяжитесь с нами и мы незамедлительно удалим её. Файлы для обмена на трекере предоставлены пользователями сайта, и администрация не несёт ответственности за их содержание. Просьба не заливать файлы, защищенные авторскими правами, а также файлы нелегального содержания!
cron