Охота на пиранью (Андрей Кавун) [2006, боевик, триллер, криминал, DVDRip-AVC] скачать торрент

Русская классика кино, Rip, Рипы, Отечественные фильмы

Модератор: Модераторы видео

  • Статистика раздачи
Размер: 2.9 ГБ   |  Зарегистрирован: 03 дек 2014, 20:04   |   .torrent скачан: 477 раз
Сидеров: 228  [ 0 байт/сек ]     Личеров: 16  [ 0 байт/сек ]  
Список файлов : Кто скачал : Раздают : Скачивают : Кто благодарил : История : Не раздающие : Запрашивали сидеров : Внешние трекеры 
  

Охота на пиранью (Андрей Кавун) [2006, боевик, триллер, криминал, DVDRip-AVC]

Сообщение Фаромир брат » 03 дек 2014, 20:09




Название: Охота на пиранью
Год выхода: 2006
Жанр: боевик, триллер, криминал
Режиссер: Андрей Кавун
В ролях: Владимир Машков, Евгений Миронов, Андрей Мерзликин, Светлана Антонова, Сергей Гармаш, Михаил Ефремов, Александр Новин, Виктория Исакова, Анна Банщикова, Алексей Горбунов

О фильме: Под видом совместного отпуска агент спецподразделения «Пираньи» Кирилл Мазур с коллегой Ольгой направляются в сибирскую тайгу с заданием ликвидировать лабораторию химического оружия, затопленную на дне озера на территории, которая вскоре должна отойти соседнему Китаю.

Неожиданно они оказываются в мире, где законы цивилизации забыты, а смертоносное оружие захвачено бандитами под предводительством нового «хозяина тайги» Прохора, который на досуге развлекается настоящей охотой на людей.

Мазур не ожидал, что ему придется сменить привычный автомат на самодельный костяной нож, и спасать себя и напарницу, вместо того, чтобы спасать мир. Но и охотники не догадывались, что для них это сафари в северных лесах окажется не менее опасным, чем для живых мишеней.



Выпущено: Рекун-ТВ
Продолжительность: 01:59:23
Перевод: Оригинал (лицензия)

Кодек: x264
Качество: DVDRip-AVC
Видео: 1024x436 (2,35:1), 25 fps, 3030 kbps
Аудио: AC-3, 6 ch, 448 kbps
Общее
Уникальный идентификатор : 226423540467819886523718036935745427064 (0xAA5796718C748110BAE4E5BBACC35678)
Полное имя : Okhota.na.Piranyu.2006.DVDRip.AVC.Rus.mkv
Формат : Matroska
Версия формата : Version 2
Размер файла : 2,90 Гбайт
Продолжительность : 1 ч. 59 м.
Общий поток : 3479 Кбит/сек
Название фильма : Охота на пиранью (2006)
Дата кодирования : UTC 2014-12-02 11:04:19
Программа кодирования : mkvmerge v5.8.0 ('No Sleep / Pillow') built on Sep 2 2012 15:37:04
Библиотека кодирования : libebml v1.2.3 + libmatroska v1.3.0

Видео
Идентификатор : 1
Формат : AVC
Формат/Информация : Advanced Video Codec
Профиль формата : [email protected]
Параметр CABAC формата : Да
Параметр ReFrames формата : 7 кадров
Идентификатор кодека : V_MPEG4/ISO/AVC
Продолжительность : 1 ч. 59 м.
Битрейт : 3030 Кбит/сек
Ширина : 1024 пикселя
Высота : 436 пикселей
Соотношение сторон : 2,35:1
Режим частоты кадров : Постоянный
Частота кадров : 25,000 кадров/сек
Цветовое пространство : YUV
Субдискретизация насыщенности : 4:2:0
Битовая глубина : 8 бит
Тип развёртки : Прогрессивная
Бит/(Пиксели*Кадры) : 0.271
Размер потока : 2,47 Гбайт (85%)
Заголовок : Release by AlexKa
Библиотека кодирования : x264 core 142 r2491 24e4fed
Настройки программы : cabac=1 / ref=7 / deblock=1:-3:-3 / analyse=0x3:0x133 / me=tesa / subme=9 / psy=1 / psy_rd=1.00:0.00 / mixed_ref=1 / me_range=16 / chroma_me=1 / trellis=2 / 8x8dct=1 / cqm=0 / deadzone=21,11 / fast_pskip=0 / chroma_qp_offset=-2 / threads=12 / lookahead_threads=2 / sliced_threads=0 / nr=0 / decimate=1 / interlaced=0 / bluray_compat=0 / constrained_intra=0 / bframes=9 / b_pyramid=2 / b_adapt=2 / b_bias=0 / direct=3 / weightb=1 / open_gop=0 / weightp=2 / keyint=250 / keyint_min=25 / scenecut=40 / intra_refresh=0 / rc=2pass / mbtree=0 / bitrate=3030 / ratetol=1.0 / qcomp=0.60 / qpmin=0 / qpmax=69 / qpstep=4 / cplxblur=20.0 / qblur=0.5 / ip_ratio=1.40 / pb_ratio=1.30 / aq=1:1.00
Язык : Russian

Аудио
Идентификатор : 2
Формат : AC-3
Формат/Информация : Audio Coding 3
Расширение режима : CM (complete main)
Параметр Endianness формата : Big
Идентификатор кодека : A_AC3
Продолжительность : 1 ч. 59 м.
Вид битрейта : Постоянный
Битрейт : 448 Кбит/сек
Каналы : 6 каналов
Расположение каналов : Front: L C R, Side: L R, LFE
Частота : 48,0 КГц
Битовая глубина : 16 бит
Метод сжатия : С потерями
Размер потока : 383 Мбайт (13%)
Заголовок : Rus
Язык : Russian

Меню
00:00:00.000 : :Chapter 01
00:10:59.400 : :Chapter 02
00:23:58.200 : :Chapter 03
00:31:07.200 : :Chapter 04
00:40:22.200 : :Chapter 05
00:50:35.400 : :Chapter 06
01:01:05.080 : :Chapter 07
01:09:45.280 : :Chapter 08
01:15:12.280 : :Chapter 09
01:25:38.080 : :Chapter 10
01:36:53.080 : :Chapter 11
01:46:56.080 : :Chapter 12
   
Торрент: Зарегистрирован [03 дек 2014, 20:04] Скачать торрент
Скачать торрент
[ Размер 15.17 КБ / Просмотров 91 ]

Статус:
 
Приватный: Нет (DHT включён)
Размер: 2.9 ГБ (3 115 003 443 байт)
   
Аватара пользователя

Супермодератор
Супермодератор
 
Раздал: 24.34 ТБ
Скачал: 1.72 ТБ
Ратио: 20.884
Сообщения: 7936
Фото: 127
Зарегистрирован: 26 ноя 2012, 17:20
Medals: 2
1000 раздач! (1) Меценат №2 (1)
ТегиОхота на пиранью

  • Похожие торренты
    Ответы
    Просмотры
    Последнее сообщение

Вернуться в Отечественные фильмы (Rip's)

Кто сейчас на конференции

Зарегистрированные пользователи: нет зарегистрированных пользователей

Ресурс не предоставляет электронные версии произведений, а занимается лишь коллекционированием и каталогизацией ссылок, присылаемых и публикуемых на форуме нашими читателями. Если вы являетесь правообладателем какого-либо представленного материала и не желаете чтобы ссылка на него находилась в нашем каталоге, свяжитесь с нами и мы незамедлительно удалим её. Файлы для обмена на трекере предоставлены пользователями сайта, и администрация не несёт ответственности за их содержание. Просьба не заливать файлы, защищенные авторскими правами, а также файлы нелегального содержания!
cron