Метро (Антон Мегердичев) [2012, триллер, драма, BDRip] Лицензия скачать торрент

Русская классика кино, Rip, Рипы, Отечественные фильмы

Модератор: Модераторы видео

  • Статистика раздачи
Размер: 1.46 ГБ   |  Зарегистрирован: 08 мар 2013, 00:30   |   .torrent скачан: 1577 раз
Сидеров: 922  [ 0 байт/сек ]     Личеров: 37  [ 0 байт/сек ]  
Список файлов : Кто скачал : Раздают : Скачивают : Кто благодарил : История : Не раздающие : Запрашивали сидеров : Внешние трекеры 
  

Метро (Антон Мегердичев) [2012, триллер, драма, BDRip] Лицензия

Сообщение Max24s » 08 мар 2013, 00:33

Метро

Дата выхода: 2012
Страна: Россия
Жанр: триллер, драма
Продолжительность: 02:11:44
Перевод: Оригинальный [Лицензия]
Режиссёр: Антон Мегердичев


В ролях: Сергей Пускепалис, Анатолий Белый, Анфиса Вистингаузен, Алексей Бардуков, Катерина Шпица, Елена Панова, Станислав Дужников, Светлана Ходченкова, Сергей Сосновский, Ярослав Жалнин


Описание: Широко развернувшееся в центре Москвы строительство новых зданий приводит к тому, что в одном из тоннелей метро между двумя станциями возникает трещина. Никто себе и представить не мог, что в результате нарушения герметичности перекрытия в тоннель хлынет вода из Москва-реки, и сотни пассажиров поезда окажутся во власти надвигающегося потопа....




Качество: BDRip [рип с Blu-Ray 1080p]
Формат: AVI
Видео: 720x304 (2.35:1), XViD 1445 Кбит/сек 25,000 fps / Бит/(Пиксели*Кадры): 0.275
Аудио: МР3 Audio Russian 128 kbps 2.0 / 48 kHz
Релиз от: by avproh
General
Complete name : Metro.2012.O.BDRip.1.46GB_[Youtracker]_by_avproh.avi
Format : AVI
Format/Info : Audio Video Interleave
File size : 1.46 GiB
Duration : 2h 11mn
Overall bit rate : 1 583 Kbps
Writing application : VirtualDubModRus 1.5.10.2 (build 2542/release)
Writing library : VirtualDubMod build 2542/release

Video
ID : 0
Format : MPEG-4 Visual
Format profile : Advanced [email protected]
Format settings, BVOP : 1
Format settings, QPel : No
Format settings, GMC : No warppoints
Format settings, Matrix : Custom
Codec ID : XVID
Codec ID/Hint : XviD
Duration : 2h 11mn
Bit rate : 1 445 Kbps
Width : 720 pixels
Height : 304 pixels
Display aspect ratio : 2.35:1
Frame rate : 23.976 fps
Color space : YUV
Chroma subsampling : 4:2:0
Bit depth : 8 bits
Scan type : Progressive
Compression mode : Lossy
Bits/(Pixel*Frame) : 0.275
Stream size : 1.33 GiB (91%)
Writing library : XviD 64

Audio
ID : 1
Format : MPEG Audio
Format version : Version 1
Format profile : Layer 3
Mode : Joint stereo
Mode extension : MS Stereo
Codec ID : 55
Codec ID/Hint : MP3
Duration : 2h 11mn
Bit rate mode : Constant
Bit rate : 128 Kbps
Channel(s) : 2 channels
Sampling rate : 48.0 KHz
Compression mode : Lossy
Stream size : 121 MiB (8%)
Alignment : Aligned on interleaves
Interleave, duration : 42 ms (1.00 video frame)
Interleave, preload duration : 504 ms

   
Торрент: Зарегистрирован [08 мар 2013, 00:30] Скачать торрент
Скачать торрент
[ Размер 15.22 КБ / Просмотров 485 ]

Статус:
 
Приватный: Нет (DHT включён)
Размер: 1.46 ГБ (1 563 901 952 байт)
   
del.
Аватара пользователя
Пир-флудер
Пир-флудер
 
Раздал: 89.94 ТБ
Скачал: 412 ГБ
Ратио: 229.890
Сообщения: 568
Зарегистрирован: 21 мар 2011, 10:07

Re: Метро (Антон Мегердичев) [2012, триллер, драма, BDRip] Лицензия

Сообщение Dryu » 08 мар 2013, 13:20

чую жопой чтто срань господня, русские фильмы они такие, любят всё испоганить) всяко гляну, спасибо)
Аватара пользователя
Пир-флудер
Пир-флудер
 
Раздал: 3.64 ТБ
Скачал: 1.32 ТБ
Ратио: 2.797
Сообщения: 624
Зарегистрирован: 03 июл 2009, 15:38
Откуда: Анапа-Сити
  • Личное сообщение
  • ICQ

Re: Метро (Антон Мегердичев) [2012, триллер, драма, BDRip] Лицензия

Сообщение Max24s » 08 мар 2013, 14:04

Dryu, вот тоже чую, хотя многие хвалят.
del.
Аватара пользователя
Пир-флудер
Пир-флудер
 
Раздал: 89.94 ТБ
Скачал: 412 ГБ
Ратио: 229.890
Сообщения: 568
Зарегистрирован: 21 мар 2011, 10:07

Re: Метро (Антон Мегердичев) [2012, триллер, драма, BDRip] Лицензия

Сообщение fylhtqzh » 12 апр 2013, 08:28

киновысер,
:yes: как пить дать
Прохожий
Прохожий
 
Раздал: 668.08 ГБ
Скачал: 925.94 ГБ
Ратио: 0.751
Сообщения: 4
Зарегистрирован: 30 апр 2009, 22:20


Вернуться в Отечественные фильмы (Rip's)

Кто сейчас на конференции

Зарегистрированные пользователи: нет зарегистрированных пользователей

cron
Ресурс не предоставляет электронные версии произведений, а занимается лишь коллекционированием и каталогизацией ссылок, присылаемых и публикуемых на форуме нашими читателями. Если вы являетесь правообладателем какого-либо представленного материала и не желаете чтобы ссылка на него находилась в нашем каталоге, свяжитесь с нами и мы незамедлительно удалим её. Файлы для обмена на трекере предоставлены пользователями сайта, и администрация не несёт ответственности за их содержание. Просьба не заливать файлы, защищенные авторскими правами, а также файлы нелегального содержания!
cron