Лапочка 3 / Honey 3: Dare to Dance (2016) HDRip | Лицензия скачать торрент

Киноновинки, новинки кинопроката, горячие новинки, Русские новинки

Модератор: Модераторы видео

  • Статистика раздачи
Размер: 1.46 ГБ   |  Зарегистрирован: 26 авг 2016, 20:10   |   .torrent скачан: 25568 раз
Сидеров: 2758  [ 0 байт/сек ]     Личеров: 467  [ 0 байт/сек ]  
Список файлов : Кто скачал : Раздают : Скачивают : Кто благодарил : История : Не раздающие : Запрашивали сидеров : Внешние трекеры 
  

Лапочка 3 / Honey 3: Dare to Dance (2016) HDRip | Лицензия

Сообщение Админ » 26 авг 2016, 20:10

Информация о фильме
Название: Лапочка 3
Оригинальное название: Honey 3: Dare to Dance
Год выхода: 2016
Жанр: Семейный
Режиссер: Билле Вудрафф
В ролях: Кэсси, Кенни Вормолд, Бобби Локвуд, Дена Каплан, Сивуйеле Нгеси, Питер Батлер, Эдриан Голли, Клэйтон Эвертсон

О фильме:
В учебное время в колледже Кейптауна, Мили Мартин решает развеяться, чтобы отвлечься от строгой школьной политики. В поисках того, как использовать свой талант танцовщицы, при этом вдохновив окружающих, Мили арендует закрывшийся театр, чтобы показать "Ромео и Джульетту" в хип-хоп стиле. Но так же, как это было между Капулетти и Монтекками, конфликты между актерами угрожают всей постановке...



Страна: США
Студия: Capital Arts Entertainment, Universal 1440 Entertainment, Universal Pictures
Продолжительность: 01:36:17
Перевод: Профессиональный (полное дублирование)[BD CEE]

Файл
Качество: HDRip
Кодек: XviD
Видео: 720x400 (16:9), 23,976 fps, XviD ~1717 kbps avg, 0.249 bit/pixel
Аудио: 48 kHz, AC3, 6 ch, ~448.00 kbps avg | русский | Профессиональный (полное дублирование)[BD CEE]
Субтитры: Отсутствуют
Семпл

Общее
Полное имя : D:TorrentsЗавершенныеHoney.3.2O16.D.HDRip.14OOMB.avi
Формат : AVI
Формат/Информация : Audio Video Interleave
Размер файла : 1,46 Гбайт
Продолжительность : 1 ч. 36 м.
Общий поток : 2174 Кбит/сек
Программа кодирования : VirtualDubMod 1.5.10.2 (build 2540/release)
Библиотека кодирования : VirtualDubMod build 2540/release
Видео
Идентификатор : 0
Формат : MPEG-4 Visual
Профиль формата : Advanced [email protected]
Параметр BVOP формата : 2
Параметр QPel формата : Нет
Параметр GMC формата : Без точки перехода
Параметр матрицы формата : Выборочная
Идентификатор кодека : XVID
Идентификатор кодека/Подсказка : XviD
Продолжительность : 1 ч. 36 м.
Битрейт : 1717 Кбит/сек
Ширина : 720 пикселей
Высота : 400 пикселей
Соотношение сторон : 16:9
Частота кадров : 23,976 (24000/1001) кадра/сек
Цветовое пространство : YUV
Субдискретизация насыщенности : 4:2:0
Битовая глубина : 8 бит
Тип развёртки : Прогрессивная
Метод сжатия : С потерями
Бит/(Пиксели*Кадры) : 0.249
Размер потока : 1,15 Гбайт (79%)
Библиотека кодирования : XviD 1.2.1 (UTC 2008-12-04)
Аудио
Идентификатор : 1
Формат : AC-3
Формат/Информация : Audio Coding 3
Расширение режима : CM (complete main)
Параметр Endianness формата : Big
Идентификатор кодека : 2000
Продолжительность : 1 ч. 36 м.
Вид битрейта : Постоянный
Битрейт : 448 Кбит/сек
Каналы : 6 каналов
Расположение каналов : Front: L C R, Side: L R, LFE
Частота : 48,0 КГц
Частота кадров : 31,250 кадров/сек (1536 spf)
Метод сжатия : С потерями
Размер потока : 309 Мбайт (21%)
Выравнивание : Разделение по промежуткам
Продолжительность промежутка : 42 мс. (1,00 видеокадр)
Время предзагрузки промежутка : 500 мс.
   
Торрент: Зарегистрирован [26 авг 2016, 20:10] Скачать торрент
Скачать торрент
О MediaGet
[ Размер 15.43 КБ / Просмотров 151 ]

Статус:
 
Приватный: Нет (DHT включён)
Размер: 1.46 ГБ (1 569 888 256 байт)
   
Аватара пользователя

Администратор
Администратор
 
Раздал: 2.33 ПБ
Скачал: 1.02 ПБ
Ратио: 2.281
Сообщения: 3723
Зарегистрирован: 07 май 2010, 17:29
Medals: 1
Лучший релиз за месяц (1)
  • Личное сообщение
  • ICQ

  • Похожие торренты
    Ответы
    Просмотры
    Последнее сообщение

Вернуться в Фильмы 2016 (новинки)

Кто сейчас на конференции

Зарегистрированные пользователи: нет зарегистрированных пользователей

Ресурс не предоставляет электронные версии произведений, а занимается лишь коллекционированием и каталогизацией ссылок, присылаемых и публикуемых на форуме нашими читателями. Если вы являетесь правообладателем какого-либо представленного материала и не желаете чтобы ссылка на него находилась в нашем каталоге, свяжитесь с нами и мы незамедлительно удалим её. Файлы для обмена на трекере предоставлены пользователями сайта, и администрация не несёт ответственности за их содержание. Просьба не заливать файлы, защищенные авторскими правами, а также файлы нелегального содержания!
cron