Самый лучший день (2015) WEB-DL [H.264/1080p-LQ] скачать торрент

Киноновинки, новинки кинопроката, горячие новинки, Русские новинки

Модератор: Модераторы видео

  • Статистика раздачи
Размер: 4.11 ГБ   |  Зарегистрирован: 25 янв 2016, 01:48   |   .torrent скачан: 71 раз
Сидеров: 3846  [ 0 байт/сек ]     Личеров: 136  [ 0 байт/сек ]  
Список файлов : Кто скачал : Раздают : Скачивают : Кто благодарил : История : Не раздающие : Запрашивали сидеров : Внешние трекеры 
  

Самый лучший день (2015) WEB-DL [H.264/1080p-LQ]

Сообщение Админ » 25 янв 2016, 01:48

Самый лучший день (2015) WEB-DL [H.264/1080p-LQ]

Производство: Россия / Базелевс Продакшн
Жанр: Комедия, Музыка

Режиссер: Жора Крыжовников
Продюсер: Алексей Казаков, Жора Крыжовников, Тимур Бекмамбетов
Актеры: Дмитрий Нагиев, Юлия Александрова, Ольга Серябкина, Инна Чурикова, Михаил Боярский, Елена Яковлева, Владислав Ветров, Валентина Мазунина, Ян Цапник, Андрей Малахов

Описание:
Успешному сотруднику ДПС Пете Васютину уже давно пора заводить семью, а он живет с мамой, хозяйкой придорожного кафе. И невеста есть — королева бензоколонки, кассирша Оля. В тот самый день, когда Петя решает сделать Оле предложение, в его служебную машину врезается пьяная поп-звезда Алина Шёпот. Чтобы избежать наказания, Алина решает соблазнить Петю…


Дата мировой премьеры: 25 декабря 2015
Дата премьеры в России: 24 декабря 2015, «Bazelevs Distribution»

Продолжительность: 01:46:54
Качество видео: WEB-DL 1080p-LQ
Перевод: Не требуется (русский) iTunes
Вид субтитров: Отсутствуют

Видео: AVC/H.264, 1920x1080, ~5116 kbps
Аудио: AC3, 6 ch, 384 kb/s
Семпл: Скачать
Код:
Код: Выделить всё
Общее
Уникальный идентификатор                 : 237743611616559665954540516341248357940 (0xB2DBC10AB9C2EE399D58EC9A4AAEF634)
Полное имя                               :Deny.2015.O.WEB-DL-1080p.nnm-club.mkv
Формат                                   : Matroska
Версия формата                           : Version 4 / Version 2
Размер файла                             : 4,11 Гбайт
Продолжительность                        : 1 ч. 46 м.
Общий поток                              : 5502 Кбит/сек
Дата кодирования                         : UTC 2016-01-24 19:14:17
Программа кодирования                    : mkvmerge v8.3.0 ('Over the Horizon') 64bit
Библиотека кодирования                   : libebml v1.3.1 + libmatroska v1.4.2

Видео
Идентификатор                            : 1
Формат                                   : AVC
Формат/Информация                        : Advanced Video Codec
Профиль формата                          : [email protected]
Параметр CABAC формата                   : Да
Параметр ReFrames формата                : 4 кадра
Идентификатор кодека                     : V_MPEG4/ISO/AVC
Продолжительность                        : 1 ч. 46 м.
Битрейт                                  : 5116 Кбит/сек
Ширина                                   : 1920 пикселей
Высота                                   : 1080 пикселей
Соотношение сторон                       : 16:9
Режим частоты кадров                     : Постоянный
Частота кадров                           : 24,000 кадра/сек
Цветовое пространство                    : YUV
Субдискретизация насыщенности            : 4:2:0
Битовая глубина                          : 8 бит
Тип развёртки                            : Прогрессивная
Бит/(Пиксели*Кадры)                      : 0.103
Размер потока                            : 3,82 Гбайт (93%)
Язык                                     : English
Default                                  : Да
Forced                                   : Нет
colour_range                             : Limited
Основные цвета                           : BT.709
Характеристики трансфера                 : BT.709
Коэффициенты матрицы                     : BT.709

Аудио
Идентификатор                            : 2
Формат                                   : AC-3
Формат/Информация                        : Audio Coding 3
Расширение режима                        : CM (complete main)
Параметр Endianness формата              : Big
Идентификатор кодека                     : A_AC3
Продолжительность                        : 1 ч. 46 м.
Вид битрейта                             : Постоянный
Битрейт                                  : 384 Кбит/сек
Каналы                                   : 6 каналов
Расположение каналов                     : Front: L C R, Side: L R, LFE
Частота                                  : 48,0 КГц
Частота кадров                           : 31,250 кадров/сек (1536 spf)
Метод сжатия                             : С потерями
Размер потока                            : 294 Мбайт (7%)
Язык                                     : Russian
Default                                  : Да
Forced                                   : Нет

Меню
00:00:00.000                             : en:Глава 1
00:06:21.000                             : en:Глава 2
00:11:40.000                             : en:Глава 3
00:17:17.000                             : en:Глава 4
00:22:26.000                             : en:Глава 5
00:28:25.000                             : en:Глава 6
00:34:38.000                             : en:Глава 7
00:41:31.000                             : en:Глава 8
00:47:00.000                             : en:Глава 9
00:53:24.000                             : en:Глава 10
00:59:26.000                             : en:Глава 11
01:04:54.000                             : en:Глава 12
01:11:11.000                             : en:Глава 13
01:16:52.000                             : en:Глава 14
01:22:58.000                             : en:Глава 15
01:28:08.000                             : en:Глава 16
01:33:29.000                             : en:Глава 17
01:39:37.000                             : en:Глава 18

Скриншоты:

   
Торрент: Зарегистрирован [25 янв 2016, 01:48] Скачать торрент
Скачать торрент
[ Размер 11.08 КБ / Просмотров 475 ]

Статус:
 
Приватный: Нет (DHT включён)
Размер: 4.11 ГБ (4 411 877 280 байт)
   
Аватара пользователя

Администратор
Администратор
 
Раздал: 2.33 ПБ
Скачал: 1.02 ПБ
Ратио: 2.281
Сообщения: 3722
Зарегистрирован: 07 май 2010, 17:29
Medals: 1
Лучший релиз за месяц (1)
  • Личное сообщение
  • ICQ

Вернуться в Фильмы 2016 (новинки)

Кто сейчас на конференции

Зарегистрированные пользователи: нет зарегистрированных пользователей

cron
Ресурс не предоставляет электронные версии произведений, а занимается лишь коллекционированием и каталогизацией ссылок, присылаемых и публикуемых на форуме нашими читателями. Если вы являетесь правообладателем какого-либо представленного материала и не желаете чтобы ссылка на него находилась в нашем каталоге, свяжитесь с нами и мы незамедлительно удалим её. Файлы для обмена на трекере предоставлены пользователями сайта, и администрация не несёт ответственности за их содержание. Просьба не заливать файлы, защищенные авторскими правами, а также файлы нелегального содержания!
cron