Экспириенс (2015) SATRip скачать торрент

Киноновинки, новинки кинопроката, горячие новинки, Русские новинки

Модератор: Модераторы видео

  • Статистика раздачи
Размер: 1.44 ГБ   |  Зарегистрирован: 23 янв 2016, 00:31   |   .torrent скачан: 23 раз
Сидеров: 193  [ 0 байт/сек ]     Личеров: 3  [ 0 байт/сек ]  
Список файлов : Кто скачал : Раздают : Скачивают : Кто благодарил : История : Не раздающие : Запрашивали сидеров : Внешние трекеры 
  

Экспириенс (2015) SATRip

Сообщение Админ » 23 янв 2016, 00:31

Экспириенс (2015) SATRip

Производство: Россия
Жанр: Драма

Режиссер: Евгений Татаров
Продюсер: Александр Тютрюмов
Актеры: Кирилл Жандаров, Владимир Меньшов, Галина Сумина, Юрий Елагин, Ирина Ларионова, Евгений Леонов-Гладышев, Ирина Яковлева, Александр Тютрюмов, Владимир Матвеев, Сергей Рост

Описание:
Молодой ученый сумел шагнуть вперед и сделать сенсационное открытие в мире науки, это Программа, которая может корректировать человеческую память. Для людей, это шанс стереть плохие воспоминания и навсегда избавится от негатива. Это открытие, приносит ученому небывалую славу и большие деньги. Одно он не учел, что вмешиваться в сознание человека, это очень плохая идея, последствия могут быть необратимыми..


Дата премьеры в России: 5 ноября 2015, «АТК-Студио»

Продолжительность: 01:29:56
Качество видео: SATRip
Перевод: Не требуется (русский)

Видео: Xvid, 720x304, ~2096 Кбит/с
Аудио: AC3, 2 ch, 192 Кбит/с, CBR
Семпл: Скачать
Код:
Код: Выделить всё
Общее
Полное имя                               : D:\FILMЬl\2016 MONK\Ekspiriens.2015.avi
Формат                                   : AVI
Формат/Информация                        : Audio Video Interleave
Размер файла                             : 1,44 Гбайт
Продолжительность                        : 1 ч. 29 м.
Общий поток                              : 2298 Кбит/сек
Программа кодирования                    : VirtualDubMod 1.5.10.3 | (build 2550/release)
Библиотека кодирования                   : VirtualDubMod build 2550/release

Видео
Идентификатор                            : 0
Формат                                   : MPEG-4 Visual
Профиль формата                          : Advanced [email protected]
Параметр BVOP формата                    : 2
Параметр QPel формата                    : Нет
Параметр GMC формата                     : Без точки перехода
Параметр матрицы формата                 : Default (H.263)
Идентификатор кодека                     : XVID
Идентификатор кодека/Подсказка           : XviD
Продолжительность                        : 1 ч. 29 м.
Битрейт                                  : 2096 Кбит/сек
Ширина                                   : 720 пикселей
Высота                                   : 304 пикселя
Соотношение сторон                       : 2,35:1
Частота кадров                           : 25,000 кадров/сек
Цветовое пространство                    : YUV
Субдискретизация насыщенности            : 4:2:0
Битовая глубина                          : 8 бит
Тип развёртки                            : Прогрессивная
Метод сжатия                             : С потерями
Бит/(Пиксели*Кадры)                      : 0.383
Размер потока                            : 1,32 Гбайт (91%)
Библиотека кодирования                   : XviD 1.2.1 (UTC 2008-12-04)

Аудио
Идентификатор                            : 1
Формат                                   : AC-3
Формат/Информация                        : Audio Coding 3
Расширение режима                        : CM (complete main)
Параметр Endianness формата              : Big
Идентификатор кодека                     : 2000
Продолжительность                        : 1 ч. 29 м.
Вид битрейта                             : Постоянный
Битрейт                                  : 192 Кбит/сек
Каналы                                   : 2 канала
Расположение каналов                     : Front: L R
Частота                                  : 48,0 КГц
Метод сжатия                             : С потерями
Размер потока                            : 124 Мбайт (8%)
Выравнивание                             : Разделение по промежуткам
Продолжительность промежутка             : 40  мс. (1,00 видеокадр)
Время предзагрузки промежутка            : 500  мс.

Скриншоты:



Время раздачи: С 09:00 до 23:30 до 5 скачавших
   
Торрент: Зарегистрирован [23 янв 2016, 00:31] Скачать торрент
Скачать торрент
[ Размер 15.19 КБ / Просмотров 171 ]

Статус:
 
Приватный: Нет (DHT включён)
Размер: 1.44 ГБ (1 549 754 368 байт)
   
Аватара пользователя

Администратор
Администратор
 
Раздал: 2.33 ПБ
Скачал: 1.02 ПБ
Ратио: 2.281
Сообщения: 3722
Зарегистрирован: 07 май 2010, 17:29
Medals: 1
Лучший релиз за месяц (1)
  • Личное сообщение
  • ICQ

Вернуться в Фильмы 2016 (новинки)

Кто сейчас на конференции

Зарегистрированные пользователи: ten367720

Ресурс не предоставляет электронные версии произведений, а занимается лишь коллекционированием и каталогизацией ссылок, присылаемых и публикуемых на форуме нашими читателями. Если вы являетесь правообладателем какого-либо представленного материала и не желаете чтобы ссылка на него находилась в нашем каталоге, свяжитесь с нами и мы незамедлительно удалим её. Файлы для обмена на трекере предоставлены пользователями сайта, и администрация не несёт ответственности за их содержание. Просьба не заливать файлы, защищенные авторскими правами, а также файлы нелегального содержания!
cron