Заклятие Велеса (2015) WEB-DLRip скачать торрент

Киноновинки, новинки кинопроката, горячие новинки, Русские новинки

Модератор: Модераторы видео

  • Статистика раздачи
Размер: 2.05 ГБ   |  Зарегистрирован: 20 янв 2016, 02:00   |   .torrent скачан: 24 раз
Сидеров: 394  [ 0 байт/сек ]     Личеров: 24  [ 0 байт/сек ]  
Список файлов : Кто скачал : Раздают : Скачивают : Кто благодарил : История : Не раздающие : Запрашивали сидеров : Внешние трекеры 
  

Заклятие Велеса (2015) WEB-DLRip

Сообщение Админ » 20 янв 2016, 02:00

Заклятие Велеса (2015) WEB-DLRip

Производство: Россия
Жанр: Драма, фантастика

Режиссер: Сергей Задорин
Актеры: Николай Викторов, Зоя Андрианова, Владимир Ульянов, Сергей Тюсов, Наталия Мажорова, Андрей Шарынин, Светлана Андреас, Александр Захаров

Описание:
Травля язычников продолжается… Архиепископ Новгородский Пимен Черный, сторонник первого царя всея Руси Ивана Грозного, не щадит приверженцев старой веры, посылая всех иноверов на костер! На этот раз ему не повезло — закованная и истерзанная ведьма исчезает прямо с казни на глазах у изумленной толпы, ее муж — травник Тихон, во время допроса демонстрирует чудо бесследного исчезновения, прихватив с собой сослужителя Пимена — дьякона. Причина побега ясна — страх перед смертью, но что же случилось с беглецами?



Продолжительность: 02:14:54
Качество видео: WEB-DLRip
Перевод: Не требуется (язык русский)
Субтитры: Отсутствуют

Видео: MPEG4, XviD, 720x404 (16:9), 23.976 fps, 2 030 Kbps (0.291 bit/pixel)
Аудио: MP3, 44.1 KHz, 2 ch, 128 Kbps, CBR
Код:
Код: Выделить всё
Общее
Полное имя                               : C:\NNM\Заклятие Велеса\Zaklyatie Velesa WEBDLRip.avi
Формат                                   : AVI
Формат/Информация                        : Audio Video Interleave
Профиль формата                          : OpenDML
Размер файла                             : 2,05 Гбайт
Продолжительность                        : 2 ч. 14 м.
Общий поток                              : 2174 Кбит/сек

Видео
Идентификатор                            : 0
Формат                                   : MPEG-4 Visual
Профиль формата                          : [email protected]
Параметр BVOP формата                    : Нет
Параметр QPel формата                    : Нет
Параметр GMC формата                     : Без точки перехода
Параметр матрицы формата                 : Default (H.263)
Идентификатор кодека                     : XVID
Идентификатор кодека/Подсказка           : XviD
Продолжительность                        : 2 ч. 14 м.
Битрейт                                  : 2030 Кбит/сек
Ширина                                   : 720 пикселей
Высота                                   : 404 пикселя
Соотношение сторон                       : 16:9
Частота кадров                           : 23,976 кадра/сек
Частота кадров в оригинале               : 23,000 кадра/сек
Цветовое пространство                    : YUV
Субдискретизация насыщенности            : 4:2:0
Битовая глубина                          : 8 бит
Тип развёртки                            : Прогрессивная
Метод сжатия                             : С потерями
Бит/(Пиксели*Кадры)                      : 0.291
Размер потока                            : 1,91 Гбайт (93%)
Библиотека кодирования                   : XviD 1.2.1 (UTC 2008-12-04)

Аудио
Идентификатор                            : 1
Формат                                   : MPEG Audio
Версия формата                           : Version 1
Профиль формата                          : Layer 3
Режим                                    : Joint stereo
Расширение режима                        : MS Stereo
Идентификатор кодека                     : 55
Идентификатор кодека/Подсказка           : MP3
Продолжительность                        : 2 ч. 14 м.
Вид битрейта                             : Постоянный
Битрейт                                  : 128 Кбит/сек
Каналы                                   : 2 канала
Частота                                  : 44,1 КГц
Метод сжатия                             : С потерями
Размер потока                            : 123 Мбайт (6%)
Выравнивание                             : Соединение по промежуткам
Продолжительность промежутка             : 26  мс. (0,63 видеокадр)
Библиотека кодирования                   : LAME3.98.2

Скриншоты:
Время раздачи:
Круглосуточно до 10 скачавших
   
Торрент: Зарегистрирован [20 янв 2016, 02:00] Скачать торрент
Скачать торрент
[ Размер 10.92 КБ / Просмотров 209 ]

Статус:
 
Приватный: Нет (DHT включён)
Размер: 2.05 ГБ (2 200 049 734 байт)
   
Аватара пользователя

Администратор
Администратор
 
Раздал: 2.33 ПБ
Скачал: 1.02 ПБ
Ратио: 2.281
Сообщения: 3722
Зарегистрирован: 07 май 2010, 17:29
Medals: 1
Лучший релиз за месяц (1)
  • Личное сообщение
  • ICQ

  • Похожие торренты
    Ответы
    Просмотры
    Последнее сообщение

Вернуться в Фильмы 2016 (новинки)

Кто сейчас на конференции

Зарегистрированные пользователи: нет зарегистрированных пользователей

cron
Ресурс не предоставляет электронные версии произведений, а занимается лишь коллекционированием и каталогизацией ссылок, присылаемых и публикуемых на форуме нашими читателями. Если вы являетесь правообладателем какого-либо представленного материала и не желаете чтобы ссылка на него находилась в нашем каталоге, свяжитесь с нами и мы незамедлительно удалим её. Файлы для обмена на трекере предоставлены пользователями сайта, и администрация не несёт ответственности за их содержание. Просьба не заливать файлы, защищенные авторскими правами, а также файлы нелегального содержания!
cron