Про Любовь (2015) WEB-DL [H.264/1080p-LQ] скачать торрент

Киноновинки, новинки кинопроката, горячие новинки, Русские новинки

Модератор: Модераторы видео

  • Статистика раздачи
Размер: 3.83 ГБ   |  Зарегистрирован: 05 янв 2016, 02:59   |   .torrent скачан: 25 раз
Сидеров: 843  [ 0 байт/сек ]     Личеров: 171  [ 0 байт/сек ]  
Список файлов : Кто скачал : Раздают : Скачивают : Кто благодарил : История : Не раздающие : Запрашивали сидеров : Внешние трекеры 
  

Про Любовь (2015) WEB-DL [H.264/1080p-LQ]

Сообщение Админ » 05 янв 2016, 02:59

Про Любовь (2015) WEB-DL [H.264/1080p-LQ]

Производство: Россия, Кинокомпания «Магнум»
Жанр: Комедия

Режиссер: Анна Меликян
Продюсер: Анна Меликян, Валерия Козловская
Актеры: Рената Литвинова, Михаил Ефремов, Мария Шалаева, Василий Ракша, Юлия Снигирь, Владимир Машков, Алексей Филимонов, Евгений Цыганов, Александра Бортич, Мария Данилюк

Описание:
Что такое любовь? На этот вопрос пытаются ответить герои фильма. Вереница самых разных персонажей и историй переплетаются в этом фильме. Маленькие истории о самом разном и все о любви: молодая пара, предпочитающая жить в образах японских аниме-героев; секретарша, получившая непристойное предложение от своего босса; японка, приехавшая в Москву в поисках русского мужчины; художник-граффити в поисках красоты; бывшая жена, нанятая своим мужем для необычного задания и многое другое…



Возраст: 16+
Дата мировой премьеры: 10 декабря 2015
Дата премьеры в России: 10 декабря 2015, «A Company», «Двадцатый Век Фокс СНГ», «Нон-Стоп Продакшн»

Продолжительность: 01:55:15
Качество видео: WEB-DL
Перевод: Не требуется (русский) iTunes
Вид субтитров: Отсутствуют

Видео: AVC/H.264, 1920x804 (2.40:1), 4277 kb/s
Аудио: 48 kHz, AC3 Dolby Digital, 3/2 (L,C,R,l,r) + LFE ch, ~384 kbps
Семпл: Скачать
Код: Выделить всё
Общее
Уникальный идентификатор                 : 183467128303565620237666734592794280803 (0x8A067BCE96F054B69C2B8476730BC363)
Полное имя                               : D:\Релизы\Про.Любовь.2015.WEB-DL.[1080p].nnm-club.mkv
Формат                                   : Matroska
Версия формата                           : Version 2
Размер файла                             : 3,83 Гбайт
Продолжительность                        : 1 ч. 55 м.
Общий поток                              : 4756 Кбит/сек
Дата кодирования                         : UTC 2016-01-04 19:50:16
Программа кодирования                    : mkvmerge v8.3.0 ('Over the Horizon') 64bit
Библиотека кодирования                   : libebml v1.3.1 + libmatroska v1.4.2
DURATION                                 : 01:55:15.904000000
NUMBER_OF_FRAMES                         : 216122
NUMBER_OF_BYTES                          : 331963392
_STATISTICS_WRITING_APP                  : mkvmerge v8.3.0 ('Over the Horizon') 64bit
_STATISTICS_WRITING_DATE_UTC             : 2016-01-04 19:50:16
_STATISTICS_TAGS                         : BPS DURATION NUMBER_OF_FRAMES NUMBER_OF_BYTES

Видео
Идентификатор                            : 1
Формат                                   : AVC
Формат/Информация                        : Advanced Video Codec
Профиль формата                          : [email protected]
Параметр CABAC формата                   : Да
Параметр ReFrames формата                : 5 кадров
Идентификатор кодека                     : V_MPEG4/ISO/AVC
Продолжительность                        : 1 ч. 55 м.
Битрейт                                  : 4277 Кбит/сек
Ширина                                   : 1920 пикселей
Высота                                   : 804 пикселя
Соотношение сторон                       : 2,40:1
Режим частоты кадров                     : Постоянный
Частота кадров                           : 24,000 кадра/сек
Цветовое пространство                    : YUV
Субдискретизация насыщенности            : 4:2:0
Битовая глубина                          : 8 бит
Тип развёртки                            : Прогрессивная
Бит/(Пиксели*Кадры)                      : 0.115
Размер потока                            : 3,44 Гбайт (90%)
Язык                                     : English
Default                                  : Да
Forced                                   : Нет
Цветовой диапазон                        : Limited
Основные цвета                           : BT.709
Характеристики трансфера                 : BT.709
Коэффициенты матрицы                     : BT.709

Аудио
Идентификатор                            : 2
Формат                                   : AC-3
Формат/Информация                        : Audio Coding 3
Расширение режима                        : CM (complete main)
Параметр Endianness формата              : Big
Идентификатор кодека                     : A_AC3
Продолжительность                        : 1 ч. 55 м.
Вид битрейта                             : Постоянный
Битрейт                                  : 384 Кбит/сек
Каналы                                   : 6 каналов
Расположение каналов                     : Front: L C R, Side: L R, LFE
Частота                                  : 48,0 КГц
Метод сжатия                             : С потерями
Размер потока                            : 317 Мбайт (8%)
Язык                                     : Russian
Default                                  : Да
Forced                                   : Нет

Меню
00:00:00.000                             : en:Глава 1
00:05:38.000                             : en:Глава 2
00:11:10.000                             : en:Глава 3
00:16:51.000                             : en:Глава 4
00:23:34.000                             : en:Глава 5
00:29:21.000                             : en:Глава 6
00:36:09.000                             : en:Глава 7
00:41:25.000                             : en:Глава 8
00:47:23.000                             : en:Глава 9
00:54:03.000                             : en:Глава 10
00:59:51.000                             : en:Глава 11
01:04:52.000                             : en:Глава 12
01:10:14.000                             : en:Глава 13
01:16:19.000                             : en:Глава 14
01:21:49.000                             : en:Глава 15
01:27:57.000                             : en:Глава 16
01:33:51.000                             : en:Глава 17
01:39:34.000                             : en:Глава 18
01:45:35.000                             : en:Глава 19

Скриншоты:

Время раздачи: 24/7, до 5 скачавших.
   
Торрент: Зарегистрирован [05 янв 2016, 02:59] Скачать торрент
Скачать торрент
[ Размер 19.86 КБ / Просмотров 219 ]

Статус:
 
Приватный: Нет (DHT включён)
Размер: 3.83 ГБ (4 111 160 187 байт)
   
Аватара пользователя

Администратор
Администратор
 
Раздал: 2.33 ПБ
Скачал: 1.02 ПБ
Ратио: 2.281
Сообщения: 3722
Зарегистрирован: 07 май 2010, 17:29
Medals: 1
Лучший релиз за месяц (1)
  • Личное сообщение
  • ICQ

Вернуться в Фильмы 2016 (новинки)

Кто сейчас на конференции

Зарегистрированные пользователи: нет зарегистрированных пользователей

cron
Ресурс не предоставляет электронные версии произведений, а занимается лишь коллекционированием и каталогизацией ссылок, присылаемых и публикуемых на форуме нашими читателями. Если вы являетесь правообладателем какого-либо представленного материала и не желаете чтобы ссылка на него находилась в нашем каталоге, свяжитесь с нами и мы незамедлительно удалим её. Файлы для обмена на трекере предоставлены пользователями сайта, и администрация не несёт ответственности за их содержание. Просьба не заливать файлы, защищенные авторскими правами, а также файлы нелегального содержания!
cron