Находка (2015) WEBRip скачать торрент

Киноновинки, новинки кинопроката, горячие новинки, Русские новинки

Модератор: Модераторы видео

  • Статистика раздачи
Размер: 1.37 ГБ   |  Зарегистрирован: 03 янв 2016, 01:21   |   .torrent скачан: 37 раз
Сидеров: 863  [ 0 байт/сек ]     Личеров: 11  [ 0 байт/сек ]  
Список файлов : Кто скачал : Раздают : Скачивают : Кто благодарил : История : Не раздающие : Запрашивали сидеров : Внешние трекеры 
  

Находка (2015) WEBRip

Сообщение Админ » 03 янв 2016, 01:21

Находка (2015) WEBRip

Производство: Россия, Кинокомпания «Талан»
Жанр: Драма, экранизация

Режиссер: Виктор Демент
Актеры: Алексей Гуськов, Надежда Маркина, Анастасия Шевелёва, Валерий Смирнов, Мария Сокова, Егор Харламов, Анатолий Узденский, Марат Серажетдинов, Алексей Вертков, Владимир Шульга

Описание:
По одноименной повести Владимира Тендрякова. Старший инспектор рыбнадзора Трофим Русанов, считающий себя «Законом», а окружающих людей – «сволочами и ворьем», волей обстоятельств оказывается в таежном лесу, один на один с суровой природой, за десятки километров от человеческого жилья. Случай, происшедший с ним в заснеженной тайге, круто меняет его взгляды на жизнь…


Дата премьеры в России: 3 декабря 2015

Продолжительность: 01:37:59
Качество видео: WEBRip
Перевод: Не требуется (язык русский)
Субтитры: Отсутствуют

Видео: MPEG4, XviD, 720x304 (2.35:1), 24.000 fps, 1 795 Kbps (0.342 bit/pixel)
Аудио: AC-3, 48.0 KHz, 2 ch, 192 Kbps, CBR
Код:
Код: Выделить всё
Общее
Полное имя                               : C:\NNM\Находка\Nahodka 2015 WEBRip.avi
Формат                                   : AVI
Формат/Информация                        : Audio Video Interleave
Размер файла                             : 1,37 Гбайт
Продолжительность                        : 1 ч. 37 м.
Общий поток                              : 1997 Кбит/сек
Программа кодирования                    : VirtualDubMod 1.5.10.2 (build 2540/release)
Библиотека кодирования                   : VirtualDubMod build 2540/release

Видео
Идентификатор                            : 0
Формат                                   : MPEG-4 Visual
Профиль формата                          : Advanced [email protected]
Параметр BVOP формата                    : 2
Параметр QPel формата                    : Нет
Параметр GMC формата                     : Без точки перехода
Параметр матрицы формата                 : Default (MPEG)
Идентификатор кодека                     : XVID
Идентификатор кодека/Подсказка           : XviD
Продолжительность                        : 1 ч. 37 м.
Битрейт                                  : 1795 Кбит/сек
Ширина                                   : 720 пикселей
Высота                                   : 304 пикселя
Соотношение сторон                       : 2,35:1
Частота кадров                           : 24,000 кадра/сек
Цветовое пространство                    : YUV
Субдискретизация насыщенности            : 4:2:0
Битовая глубина                          : 8 бит
Тип развёртки                            : Прогрессивная
Метод сжатия                             : С потерями
Бит/(Пиксели*Кадры)                      : 0.342
Размер потока                            : 1,23 Гбайт (90%)
Библиотека кодирования                   : XviD 1.2.1 (UTC 2008-12-04)

Аудио
Идентификатор                            : 1
Формат                                   : AC-3
Формат/Информация                        : Audio Coding 3
Расширение режима                        : CM (complete main)
Идентификатор кодека                     : 2000
Продолжительность                        : 1 ч. 37 м.
Вид битрейта                             : Постоянный
Битрейт                                  : 192 Кбит/сек
Каналы                                   : 2 канала
Расположение каналов                     : Front: L R
Частота                                  : 48,0 КГц
Битовая глубина                          : 16 бит
Метод сжатия                             : С потерями
Размер потока                            : 135 Мбайт (10%)
Выравнивание                             : Разделение по промежуткам
Продолжительность промежутка             : 42  мс. (1,00 видеокадр)
Время предзагрузки промежутка            : 500  мс.

Скриншоты:
Время раздачи:
Круглосуточно до 10 скачавших
   
Торрент: Зарегистрирован [03 янв 2016, 01:21] Скачать торрент
Скачать торрент
[ Размер 14.31 КБ / Просмотров 232 ]

Статус:
 
Приватный: Нет (DHT включён)
Размер: 1.37 ГБ (1 467 410 432 байт)
   
Аватара пользователя

Администратор
Администратор
 
Раздал: 2.33 ПБ
Скачал: 1.02 ПБ
Ратио: 2.281
Сообщения: 3722
Зарегистрирован: 07 май 2010, 17:29
Medals: 1
Лучший релиз за месяц (1)
  • Личное сообщение
  • ICQ

  • Похожие торренты
    Ответы
    Просмотры
    Последнее сообщение

Вернуться в Фильмы 2016 (новинки)

Кто сейчас на конференции

Зарегистрированные пользователи: нет зарегистрированных пользователей

cron
Ресурс не предоставляет электронные версии произведений, а занимается лишь коллекционированием и каталогизацией ссылок, присылаемых и публикуемых на форуме нашими читателями. Если вы являетесь правообладателем какого-либо представленного материала и не желаете чтобы ссылка на него находилась в нашем каталоге, свяжитесь с нами и мы незамедлительно удалим её. Файлы для обмена на трекере предоставлены пользователями сайта, и администрация не несёт ответственности за их содержание. Просьба не заливать файлы, защищенные авторскими правами, а также файлы нелегального содержания!
cron