Метаморфозис (2015) WEB-DLRip скачать торрент

Киноновинки, новинки кинопроката, горячие новинки, Русские новинки

Модератор: Модераторы видео

  • Статистика раздачи
Размер: 1.44 ГБ   |  Зарегистрирован: 02 янв 2016, 00:59   |   .torrent скачан: 16 раз
Сидеров: 450  [ 0 байт/сек ]     Личеров: 151  [ 0 байт/сек ]  
Список файлов : Кто скачал : Раздают : Скачивают : Кто благодарил : История : Не раздающие : Запрашивали сидеров : Внешние трекеры 
  

Метаморфозис (2015) WEB-DLRip

Сообщение Админ » 02 янв 2016, 01:00

Метаморфозис (2015) WEB-DLRip

Производство: Россия, Альфа-Бета Фильм
Жанр: Драма

Режиссер: Сергей Тарамаев, Любовь Львова
Актеры: Егор Корешков, Евгений Ткачук, Василиса Бернаскони, Юлия Ауг, Ёла Санько, Денис Шведов, Амбарцум Кабанян, Сергей Русскин, Николай Орловский, Светлана Столярова

Описание:
Жизнь талантливого пианиста Алексея Сенина – это репетиции, концерты, музыка. Ничего, кроме музыки. Мать, целиком подчинившая своей безумной любовью сына. Тетка, озабоченная исключительно бытом. Предприимчивый директор Влад. Ближний круг – из абсолютно чужих ему людей. В свои двадцать пять Алексей, несмотря на известность и признание, словно одинокий несчастный ребенок. Однажды, выступая в доме состоятельного бизнесмена, он знакомится с дочкой хозяина, 11-летней Сашей. И в ней он находит родственную душу. Их невинная дружба вызывает вокруг страшную бурю злобы, запретов и насилия. Девочка и музыкант – два чистых и светлых человека, против которых ополчился циничный, жестокий и больной мир…


Дата премьеры в России: 19 ноября 2015

Продолжительность: 01:43:08
Качество видео: WEB-DLRip
Перевод: Не требуется (язык русский)
Субтитры: Отсутствуют

Видео: MPEG4, XviD, 720x304 (2.35:1), 24.000 fps, 1 610 Kbps (0.306 bit/pixel)
Аудио: AC-3, 48.0 KHz, 6 ch, 384 Kbps, CBR
Код:
Код: Выделить всё
Общее
Полное имя                               : C:\NNM\Метаморфозис\Metamorfozis 2015 WEB-DLRip.avi
Формат                                   : AVI
Формат/Информация                        : Audio Video Interleave
Размер файла                             : 1,44 Гбайт
Продолжительность                        : 1 ч. 43 м.
Общий поток                              : 2003 Кбит/сек
Программа кодирования                    : VirtualDubMod 1.5.10.2 (build 2540/release)
Библиотека кодирования                   : VirtualDubMod build 2540/release

Видео
Идентификатор                            : 0
Формат                                   : MPEG-4 Visual
Профиль формата                          : Advanced [email protected]
Параметр BVOP формата                    : 2
Параметр QPel формата                    : Нет
Параметр GMC формата                     : Без точки перехода
Параметр матрицы формата                 : Выборочная
Идентификатор кодека                     : XVID
Идентификатор кодека/Подсказка           : XviD
Продолжительность                        : 1 ч. 43 м.
Битрейт                                  : 1610 Кбит/сек
Ширина                                   : 720 пикселей
Высота                                   : 304 пикселя
Соотношение сторон                       : 2,35:1
Частота кадров                           : 24,000 кадра/сек
Цветовое пространство                    : YUV
Субдискретизация насыщенности            : 4:2:0
Битовая глубина                          : 8 бит
Тип развёртки                            : Прогрессивная
Метод сжатия                             : С потерями
Бит/(Пиксели*Кадры)                      : 0.306
Размер потока                            : 1,16 Гбайт (80%)
Библиотека кодирования                   : XviD 1.2.1 (UTC 2008-12-04)

Аудио
Идентификатор                            : 1
Формат                                   : AC-3
Формат/Информация                        : Audio Coding 3
Расширение режима                        : CM (complete main)
Идентификатор кодека                     : 2000
Продолжительность                        : 1 ч. 43 м.
Вид битрейта                             : Постоянный
Битрейт                                  : 384 Кбит/сек
Каналы                                   : 6 каналов
Расположение каналов                     : Front: L C R, Side: L R, LFE
Частота                                  : 48,0 КГц
Битовая глубина                          : 16 бит
Метод сжатия                             : С потерями
Размер потока                            : 283 Мбайт (19%)
Выравнивание                             : Разделение по промежуткам
Продолжительность промежутка             : 42  мс. (1,00 видеокадр)
Время предзагрузки промежутка            : 500  мс.

Скриншоты:
Время раздачи:
Круглосуточно до 10 скачавших
   
Торрент: Зарегистрирован [02 янв 2016, 00:59] Скачать торрент
Скачать торрент
[ Размер 15.1 КБ / Просмотров 154 ]

Статус:
 
Приватный: Нет (DHT включён)
Размер: 1.44 ГБ (1 549 490 176 байт)
   
Аватара пользователя

Администратор
Администратор
 
Раздал: 2.33 ПБ
Скачал: 1.02 ПБ
Ратио: 2.281
Сообщения: 3722
Зарегистрирован: 07 май 2010, 17:29
Medals: 1
Лучший релиз за месяц (1)
  • Личное сообщение
  • ICQ

  • Похожие торренты
    Ответы
    Просмотры
    Последнее сообщение

Вернуться в Фильмы 2016 (новинки)

Кто сейчас на конференции

Зарегистрированные пользователи: ten367720

Ресурс не предоставляет электронные версии произведений, а занимается лишь коллекционированием и каталогизацией ссылок, присылаемых и публикуемых на форуме нашими читателями. Если вы являетесь правообладателем какого-либо представленного материала и не желаете чтобы ссылка на него находилась в нашем каталоге, свяжитесь с нами и мы незамедлительно удалим её. Файлы для обмена на трекере предоставлены пользователями сайта, и администрация не несёт ответственности за их содержание. Просьба не заливать файлы, защищенные авторскими правами, а также файлы нелегального содержания!
cron