Он – дракон (2015) WEB-DL [H.264/1080p-LQ] скачать торрент

Киноновинки, новинки кинопроката, горячие новинки, Русские новинки

Модератор: Модераторы видео

  • Статистика раздачи
Размер: 3.59 ГБ   |  Зарегистрирован: 31 дек 2015, 01:32   |   .torrent скачан: 57 раз
Сидеров: 1089  [ 0 байт/сек ]     Личеров: 11  [ 0 байт/сек ]  
Список файлов : Кто скачал : Раздают : Скачивают : Кто благодарил : История : Не раздающие : Запрашивали сидеров : Внешние трекеры 
  

Он – дракон (2015) WEB-DL [H.264/1080p-LQ]

Сообщение Админ » 31 дек 2015, 01:32

Он – дракон (2015) WEB-DL [H.264/1080p-LQ]

Производство: Россия / Базелевс Продакшн
Жанр: Фэнтези

Режиссер: Индар Джендубаев
Продюсер: Тимур Бекмамбетов, Наталья Смирнова, Игорь Цай,
Актеры: Мария Поезжаева, Матвей Лыков, Станислав Любшин, Иева Андреевайте, Петр Романов, Андрей Лебединский, Марта Тимофеева, Иво Господинов, Егор Зубарчук, Виктория Рунцова

Описание:
В разгар свадьбы княжну Мирославу похищает дракон, унося в свой замок на острове. В прошлом остались родные, жених, теперь только каменный плен в компании прекрасного Армана… но кто он и как оказался на острове? Мира поймет это слишком поздно: любовь к нему, человеку-дракону, откроет ей горькую истину — любить страшно.


Дата премьеры в России: 3 декабря 2015, «Bazelevs Distribution»

Продолжительность: 01:46:54
Качество видео: WEB-DL 1080p-LQ
Перевод: Не требуется (русский) iTunes
Вид субтитров: Отсутствуют

Видео: AVC/H.264, 1916x804, ~4331 kbps
Аудио: AC3, 6 ch, 384 kb/s
Семпл: Скачать
Код:
Код: Выделить всё
Общее
Уникальный идентификатор                 : 195519789719851368430098092930586074433 (0x9317BDE4E991D174B6BF8F9E65875D41)
Полное имя                               :Dpakon.2015.D.WEB-DL.1080p.nnm-club.mkv
Формат                                   : Matroska
Версия формата                           : Version 4 / Version 2
Размер файла                             : 3,59 Гбайт
Продолжительность                        : 1 ч. 46 м.
Общий поток                              : 4811 Кбит/сек
Дата кодирования                         : UTC 2015-12-30 20:12:26
Программа кодирования                    : mkvmerge v8.3.0 ('Over the Horizon') 64bit
Библиотека кодирования                   : libebml v1.3.1 + libmatroska v1.4.2
DURATION                                 : 01:46:54.272000000
NUMBER_OF_FRAMES                         : 200446
NUMBER_OF_BYTES                          : 307885056
_STATISTICS_WRITING_APP                  : mkvmerge v8.3.0 ('Over the Horizon') 64bit
_STATISTICS_WRITING_DATE_UTC             : 2015-12-30 20:12:26
_STATISTICS_TAGS                         : BPS DURATION NUMBER_OF_FRAMES NUMBER_OF_BYTES

Видео
Идентификатор                            : 1
Формат                                   : AVC
Формат/Информация                        : Advanced Video Codec
Профиль формата                          : [email protected]
Параметр CABAC формата                   : Да
Параметр ReFrames формата                : 5 кадров
Идентификатор кодека                     : V_MPEG4/ISO/AVC
Продолжительность                        : 1 ч. 46 м.
Битрейт                                  : 4331 Кбит/сек
Ширина                                   : 1916 пикселей
Высота                                   : 804 пикселя
Соотношение сторон                       : 2,40:1
Режим частоты кадров                     : Постоянный
Частота кадров                           : 24,000 кадра/сек
Цветовое пространство                    : YUV
Субдискретизация насыщенности            : 4:2:0
Битовая глубина                          : 8 бит
Тип развёртки                            : Прогрессивная
Бит/(Пиксели*Кадры)                      : 0.117
Размер потока                            : 3,23 Гбайт (90%)
Язык                                     : English
Default                                  : Да
Forced                                   : Нет
colour_range                             : Limited
Основные цвета                           : BT.709
Характеристики трансфера                 : BT.709
Коэффициенты матрицы                     : BT.709

Аудио
Идентификатор                            : 2
Формат                                   : AC-3
Формат/Информация                        : Audio Coding 3
Расширение режима                        : CM (complete main)
Параметр Endianness формата              : Big
Идентификатор кодека                     : A_AC3
Продолжительность                        : 1 ч. 46 м.
Вид битрейта                             : Постоянный
Битрейт                                  : 384 Кбит/сек
Каналы                                   : 6 каналов
Расположение каналов                     : Front: L C R, Side: L R, LFE
Частота                                  : 48,0 КГц
Метод сжатия                             : С потерями
Размер потока                            : 294 Мбайт (8%)
Язык                                     : Russian
Default                                  : Да
Forced                                   : Нет

Меню
00:00:00.000                             : en:Глава 1
00:05:26.000                             : en:Глава 2
00:11:15.000                             : en:Глава 3
00:16:58.000                             : en:Глава 4
00:24:09.000                             : en:Глава 5
00:29:45.000                             : en:Глава 6
00:34:48.000                             : en:Глава 7
00:41:26.000                             : en:Глава 8
00:46:47.000                             : en:Глава 9
00:53:25.000                             : en:Глава 10
00:58:43.000                             : en:Глава 11
01:03:46.000                             : en:Глава 12
01:09:21.000                             : en:Глава 13
01:15:07.000                             : en:Глава 14
01:20:21.000                             : en:Глава 15
01:27:49.000                             : en:Глава 16
01:34:16.000                             : en:Глава 17
01:39:57.000                             : en:Глава 18

Скриншоты:


   
Торрент: Зарегистрирован [31 дек 2015, 01:32] Скачать торрент
Скачать торрент
[ Размер 18.75 КБ / Просмотров 447 ]

Статус:
 
Приватный: Нет (DHT включён)
Размер: 3.59 ГБ (3 857 516 797 байт)
   
Аватара пользователя

Администратор
Администратор
 
Раздал: 2.33 ПБ
Скачал: 1.02 ПБ
Ратио: 2.281
Сообщения: 3722
Зарегистрирован: 07 май 2010, 17:29
Medals: 1
Лучший релиз за месяц (1)
  • Личное сообщение
  • ICQ

Re: Он – дракон (2015) WEB-DL [H.264/1080p-LQ]

Сообщение NDS » 01 янв 2016, 13:17

это российский фильм, а раздел для иностранных...
Прохожий
Прохожий
 
Раздал: 2.24 ТБ
Скачал: 2.24 ТБ
Ратио: 1.205
Сообщения: 7
Зарегистрирован: 04 май 2009, 10:46
Medals: 1
Преданность (1)


Вернуться в Фильмы 2016 (новинки)

Кто сейчас на конференции

Зарегистрированные пользователи: нет зарегистрированных пользователей

cron
Ресурс не предоставляет электронные версии произведений, а занимается лишь коллекционированием и каталогизацией ссылок, присылаемых и публикуемых на форуме нашими читателями. Если вы являетесь правообладателем какого-либо представленного материала и не желаете чтобы ссылка на него находилась в нашем каталоге, свяжитесь с нами и мы незамедлительно удалим её. Файлы для обмена на трекере предоставлены пользователями сайта, и администрация не несёт ответственности за их содержание. Просьба не заливать файлы, защищенные авторскими правами, а также файлы нелегального содержания!
cron