Обнажённая / Bare (2015) WEB-DL 720p | Sub скачать торрент

Киноновинки, новинки кинопроката, горячие новинки, Русские новинки

Модератор: Модераторы видео

  • Статистика раздачи
Размер: 2.74 ГБ   |  Зарегистрирован: 12 ноя 2015, 00:06   |   .torrent скачан: 442 раз
Сидеров: 222  [ 0 байт/сек ]     Личеров: 34  [ 0 байт/сек ]  
Список файлов : Кто скачал : Раздают : Скачивают : Кто благодарил : История : Не раздающие : Запрашивали сидеров : Внешние трекеры 
  

Обнажённая / Bare (2015) WEB-DL 720p | Sub

Сообщение Админ » 12 ноя 2015, 00:06

Информация о фильме
Название: Обнажённая
Оригинальное название: Bare
Год выхода: 2015
Жанр: драма
Режиссер: Наталия Лейте
В ролях: Дианна Агрон, Пас де ла Уэрта, Крис Зилка, Луиса Краузе, Mary Price Moore, Лора Каннингэм, Alexandra Roxo, Трэвис Хаммер, Келли Леваллен, Келли Питтман
О фильме: Драма о молодой девушке из Невады, Саре, которая завязывает романтические отношения с мистической женщиной Пеппер, и перед ней открывается новый мир, полный наркотиков, алкоголя и стриптиз клубов.

Выпущено: США / Indion Entertainment Group, Purple Milk
Продолжительность: 01:30:46
Перевод: Субтитры
Файл
Формат: MKV
Качество: WEB-DL 720p
Видео: MPEG-4 AVC, 3857 kb/s, 1280x536
Аудио: English: AC3, 384 kb/s (6 ch)
Субтитры: Russian [lucky_ann, peyngel, anastasia_barrr и NikkieMickey], English
Format : Matroska
Format version : Version 2
File size : 2.74 GiB
Duration : 1h 30mn
Overall bit rate : 4 327 Kbps
Encoded date : UTC 2015-11-11 19:29:52
Writing application : mkvmerge v7.8.0 ('River Man') 32bit built on Apr 3 2015 12:11:22
Writing library : libebml v1.3.1 + libmatroska v1.4.2

Video
ID : 1
Format : AVC
Format/Info : Advanced Video Codec
Format profile : [email protected]
Format settings, CABAC : No
Format settings, ReFrames : 2 frames
Codec ID : V_MPEG4/ISO/AVC
Duration : 1h 30mn
Bit rate : 3 857 Kbps
Width : 1 280 pixels
Height : 536 pixels
Display aspect ratio : 2.40:1
Frame rate mode : Constant
Frame rate : 23.976 fps
Color space : YUV
Chroma subsampling : 4:2:0
Bit depth : 8 bits
Scan type : Progressive
Bits/(Pixel*Frame) : 0.234
Stream size : 2.45 GiB (89%)
Language : English
Default : Yes
Forced : No
Color range : Limited
Color primaries : BT.709
Transfer characteristics : BT.709
Matrix coefficients : BT.709

Audio
ID : 2
Format : AC-3
Format/Info : Audio Coding 3
Mode extension : CM (complete main)
Format settings, Endianness : Big
Codec ID : A_AC3
Duration : 1h 30mn
Bit rate mode : Constant
Bit rate : 384 Kbps
Channel(s) : 6 channels
Channel positions : Front: L C R, Side: L R, LFE
Sampling rate : 48.0 KHz
Bit depth : 16 bits
Compression mode : Lossy
Stream size : 249 MiB (9%)
Language : English
Default : Yes
Forced : No

Text #1
ID : 3
Format : UTF-8
Codec ID : S_TEXT/UTF8
Codec ID/Info : UTF-8 Plain Text
Language : Russian
Default : Yes
Forced : No

Text #2
ID : 4
Format : UTF-8
Codec ID : S_TEXT/UTF8
Codec ID/Info : UTF-8 Plain Text
Language : English
Default : No
Forced : No

Menu
00:00:00.000 : en:1
00:10:24.000 : en:2
00:20:34.000 : en:3
00:27:42.000 : en:4
00:38:14.000 : en:5
00:51:35.000 : en:6
01:03:19.000 : en:7
01:12:36.000 : en:8
01:19:35.000 : en:9
01:28:16.000 : en:10





   
Торрент: Зарегистрирован [12 ноя 2015, 00:06] Скачать торрент
Скачать торрент
[ Размер 14.38 КБ / Просмотров 199 ]

Статус:
 
Приватный: Нет (DHT включён)
Размер: 2.74 ГБ (2 946 279 676 байт)
   
Аватара пользователя

Администратор
Администратор
 
Раздал: 2.33 ПБ
Скачал: 1.02 ПБ
Ратио: 2.281
Сообщения: 3722
Зарегистрирован: 07 май 2010, 17:29
Medals: 1
Лучший релиз за месяц (1)
  • Личное сообщение
  • ICQ

Вернуться в Фильмы 2016 (новинки)

Кто сейчас на конференции

Зарегистрированные пользователи: нет зарегистрированных пользователей

Ресурс не предоставляет электронные версии произведений, а занимается лишь коллекционированием и каталогизацией ссылок, присылаемых и публикуемых на форуме нашими читателями. Если вы являетесь правообладателем какого-либо представленного материала и не желаете чтобы ссылка на него находилась в нашем каталоге, свяжитесь с нами и мы незамедлительно удалим её. Файлы для обмена на трекере предоставлены пользователями сайта, и администрация не несёт ответственности за их содержание. Просьба не заливать файлы, защищенные авторскими правами, а также файлы нелегального содержания!
cron