Пациенты (2014) WEB-DLRip скачать торрент

Киноновинки, новинки кинопроката, горячие новинки, Русские новинки

Модератор: Модераторы видео

  • Статистика раздачи
Размер: 1.37 ГБ   |  Зарегистрирован: 02 май 2015, 19:19   |   .torrent скачан: 14 раз
Сидеров: 198  [ 0 байт/сек ]     Личеров: 9  [ 0 байт/сек ]  
Список файлов : Кто скачал : Раздают : Скачивают : Кто благодарил : История : Не раздающие : Запрашивали сидеров : Внешние трекеры 
  

Пациенты (2014) WEB-DLRip

Сообщение Боцман » 02 май 2015, 19:19

Пациенты (2014) WEB-DLRip

Производство: Россия / Лук-фильм
Жанр: Драма, Комедия

Режиссер: Элла Омельченко
Актеры: Павел Баршак, Тимофей Трибунцев, Марьяна Кирсанова, Дмитрий Мухамадеев

Описание:
Сергей посещает психоаналитика Брюсова, который на каждом сеансе внушает ему мысль о разводе со своей супругой. «Семья — это не главное! Главное — чего хочешь ты!» По мнению Брюсова жена подавляет в нем собственное «ЭГО». Леночка же, супруга Сергея, ходит на исповедь к священнику, отцу Сергию. Батюшка, в отличие от психоаналитика, наказывает Леночке, во что бы то ни стало сохранить семью. «Семья — это главное! Всё ради семьи!» Это противостояние психоаналитика и священника длится уже полтора года. Кто же победит?



Дата премьеры в РФ: 26 марта 2015, «Парадиз»

Продолжительность: 01:26:56
Качество видео: WEB-DLRip
Перевод: Не требуется (русский) iTunes
Субтитры: Отсутствуют

Видеокодек: XviD
Битрейт видео: ~1860 Kb/s
Размер кадра: 720x400
Аудиокодек: AC3 5.1
Битрейт аудио: 384 Kb/s
Сэмпл: Скачать
Код:
Код: Выделить всё
Общее
Полное имя                               : Pacienty.2014.O.WEB-DLRip.nnm-club.avi
Формат                                   : AVI
Формат/Информация                        : Audio Video Interleave
Размер файла                             : 1,37 Гбайт
Продолжительность                        : 1 ч. 26 м.
Общий поток                              : 2255 Кбит/сек
Название фильма                          : Pacienty.2014.O.WEB-DLRip
Программа кодирования                    : VirtualDubMod 1.5.10.3 | || (build 2550/release)

Видео
Идентификатор                            : 0
Формат                                   : MPEG-4 Visual
Профиль формата                          : Advanced [email protected]
Параметр BVOP формата                    : 2
Параметр QPel формата                    : Нет
Параметр GMC формата                     : Без точки перехода
Параметр матрицы формата                 : Default (MPEG)
Режим смешивания                         : Сжатый битовый поток
Идентификатор кодека                     : XVID
Идентификатор кодека/Подсказка           : XviD
Продолжительность                        : 1 ч. 26 м.
Битрейт                                  : 1861 Кбит/сек
Ширина                                   : 720 пикселей
Высота                                   : 400 пикселей
Соотношение сторон                       : 16:9
Частота кадров                           : 25,000 кадров/сек
Цветовое пространство                    : YUV
Субдискретизация насыщенности            : 4:2:0
Битовая глубина                          : 8 бит
Тип развёртки                            : Прогрессивная
Метод сжатия                             : С потерями
Бит/(Пиксели*Кадры)                      : 0.258
Размер потока                            : 1,13 Гбайт (83%)
Библиотека кодирования                   : XviD 73

Аудио
Идентификатор                            : 1
Формат                                   : AC-3
Формат/Информация                        : Audio Coding 3
Расширение режима                        : CM (complete main)
Параметр Endianness формата              : Big
Идентификатор кодека                     : 2000
Продолжительность                        : 1 ч. 26 м.
Вид битрейта                             : Постоянный
Битрейт                                  : 384 Кбит/сек
Каналы                                   : 6 каналов
Расположение каналов                     : Front: L C R, Side: L R, LFE
Частота                                  : 48,0 КГц
Битовая глубина                          : 16 бит
Метод сжатия                             : С потерями
Размер потока                            : 239 Мбайт (17%)
Выравнивание                             : Разделение по промежуткам
Продолжительность промежутка             : 40  мс. (1,00 видеокадр)
Время предзагрузки промежутка            : 500  мс.

Скриншоты:


Время раздачи: 24/7 (до 10 скачавших)
   
Торрент: Зарегистрирован [02 май 2015, 19:19] Скачать торрент
Скачать торрент
[ Размер 14.48 КБ / Просмотров 135 ]

Статус:
 
Приватный: Нет (DHT включён)
Размер: 1.37 ГБ (1 470 128 128 байт)
   
Хочешь стать частью команды MZ-Tracker?
Запишись
ТУТ
Аватара пользователя

Убийца клавиатуры
Убийца клавиатуры
 
Раздал: 12.57 ГБ
Скачал: 907.51 ГБ
Ратио: 0.017
Сообщения: 4358
Фото: 292
Зарегистрирован: 19 июн 2008, 23:00

  • Похожие торренты
    Ответы
    Просмотры
    Последнее сообщение

Вернуться в Фильмы 2016 (новинки)

Кто сейчас на конференции

Зарегистрированные пользователи: нет зарегистрированных пользователей

cron
Ресурс не предоставляет электронные версии произведений, а занимается лишь коллекционированием и каталогизацией ссылок, присылаемых и публикуемых на форуме нашими читателями. Если вы являетесь правообладателем какого-либо представленного материала и не желаете чтобы ссылка на него находилась в нашем каталоге, свяжитесь с нами и мы незамедлительно удалим её. Файлы для обмена на трекере предоставлены пользователями сайта, и администрация не несёт ответственности за их содержание. Просьба не заливать файлы, защищенные авторскими правами, а также файлы нелегального содержания!
cron