Звезда (Анна Меликян) [2014, Мелодрама, Комедия, Драма, WEB-DLRip] скачать торрент

Киноновинки, новинки кинопроката, горячие новинки, Русские новинки

Модератор: Модераторы видео

  • Статистика раздачи
Размер: 2.05 ГБ   |  Зарегистрирован: 01 фев 2015, 14:26   |   .torrent скачан: 19 раз
Сидеров: 158  [ 0 байт/сек ]     Личеров: 0  [ 0 байт/сек ]  
Список файлов : Кто скачал : Раздают : Скачивают : Кто благодарил : История : Не раздающие : Запрашивали сидеров : Внешние трекеры 
  

Звезда (Анна Меликян) [2014, Мелодрама, Комедия, Драма, WEB-DLRip]

Сообщение Фаромир брат » 01 фев 2015, 14:26

Звезда

Жанр: Мелодрама, Комедия, Драма
Год выпуска: 2014
Продолжительность: 02:10:52

Режиссёр: Анна Меликян

В ролях: Тинатин Далакишвили, Северия Янушаускайте, Павел Табаков, Андрей Смоляков, Юозас Будрайтис, Александр Шейн, Арунас Сторпирстис, Сергей Каплунов, Гоша Куценко, Денис Шведов, Филипп Янковский

Описание: Юная актриса — очаровательная и неуклюжая непосредственность, мечтающая стать настоящей звездой. Роскошная светская львица, жизнь которой в одно мгновение повисла на волоске. Её пятнадцатилетний приёмный сын, уставший от денег и притворства. Такие разные люди, такие тесно переплетенные судьбы… Изысканный юмор, нежная романтическая линия и драматичные повороты сюжета приведут нас к трогательной развязке, где каждый герой осознает, что для него значит истинное счастье.




Качество видео: WEB-DLRip
Формат видео: AVI

Видео: 720x400 (1.80:1), 24 fps, XviD build 50 ~1855 kbps avg
Аудио: 48 kHz, AC3 Dolby Digital, 2/0 (L,R) ch, ~384 kbps
Формат : AVI
Формат/Информация : Audio Video Interleave
Профиль формата : OpenDML
Размер файла : 2,05 Гбайт
Продолжительность : 2 ч. 10 м.
Общий поток : 2246 Кбит/сек
Программа кодирования : VirtualDubMod 1.5.10.2 (build 2540/release)
Библиотека кодирования : VirtualDubMod build 2540/release

Видео
Идентификатор : 0
Формат : MPEG-4 Visual
Профиль формата : Advanced [email protected]
Параметр BVOP формата : 2
Параметр QPel формата : Нет
Параметр GMC формата : Без точки перехода
Параметр матрицы формата : Default (MPEG)
Идентификатор кодека : XVID
Идентификатор кодека/Подсказка : XviD
Продолжительность : 2 ч. 10 м.
Битрейт : 1850 Кбит/сек
Ширина : 720 пикселей
Высота : 400 пикселей
Соотношение сторон : 16:9
Частота кадров : 24,000 кадра/сек
Цветовое пространство : YUV
Субдискретизация насыщенности : 4:2:0
Битовая глубина : 8 бит
Тип развёртки : Прогрессивная
Метод сжатия : С потерями
Бит/(Пиксели*Кадры) : 0.268
Размер потока : 1,69 Гбайт (82%)
Библиотека кодирования : XviD 1.2.1 (UTC 2008-12-04)

Аудио
Идентификатор : 1
Формат : AC-3
Формат/Информация : Audio Coding 3
Расширение режима : CM (complete main)
Параметр Endianness формата : Big
Идентификатор кодека : 2000
Продолжительность : 2 ч. 10 м.
Вид битрейта : Постоянный
Битрейт : 384 Кбит/сек
Каналы : 2 канала
Расположение каналов : Front: L R
Частота : 48,0 КГц
Битовая глубина : 16 бит
Метод сжатия : С потерями
Размер потока : 359 Мбайт (17%)
Выравнивание : Разделение по промежуткам
Продолжительность промежутка : 42 мс. (1,00 видеокадр)
Время предзагрузки промежутка : 500 мс.
   
Торрент: Зарегистрирован [01 фев 2015, 14:26] Скачать торрент
Скачать торрент
[ Размер 10.75 КБ / Просмотров 108 ]

Статус:
 
Приватный: Нет (DHT включён)
Размер: 2.05 ГБ (2 204 663 808 байт)
   
Аватара пользователя

Супермодератор
Супермодератор
 
Раздал: 24.34 ТБ
Скачал: 1.72 ТБ
Ратио: 20.884
Сообщения: 7936
Фото: 127
Зарегистрирован: 26 ноя 2012, 17:20
Medals: 2
1000 раздач! (1) Меценат №2 (1)

  • Похожие торренты
    Ответы
    Просмотры
    Последнее сообщение

Вернуться в Фильмы 2016 (новинки)

Кто сейчас на конференции

Зарегистрированные пользователи: нет зарегистрированных пользователей

cron
Ресурс не предоставляет электронные версии произведений, а занимается лишь коллекционированием и каталогизацией ссылок, присылаемых и публикуемых на форуме нашими читателями. Если вы являетесь правообладателем какого-либо представленного материала и не желаете чтобы ссылка на него находилась в нашем каталоге, свяжитесь с нами и мы незамедлительно удалим её. Файлы для обмена на трекере предоставлены пользователями сайта, и администрация не несёт ответственности за их содержание. Просьба не заливать файлы, защищенные авторскими правами, а также файлы нелегального содержания!
cron